<?xml version="1.0" standalone="no"?>
<!DOCTYPE svg PUBLIC "-//W3C//DTD SVG 1.1//EN" "http://www.w3.org/Graphics/SVG/1.1/DTD/svg11.dtd" >
<svg xmlns="http://www.w3.org/2000/svg" xmlns:xlink="http://www.w3.org/1999/xlink" version="1.1">
<metadata>
Created by FontForge 20180930 at Mon Oct  8 19:06:31 2018
 By root
Modern and elegant sans serif font family.
</metadata>
<defs>
<font id="Mont-ExtraLightDEMO" horiz-adv-x="376" >
  <font-face 
    font-family="Mont ExtraLight DEMO"
    font-weight="300"
    font-stretch="normal"
    units-per-em="1000"
    panose-1="0 0 4 0 0 0 0 0 0 0"
    ascent="800"
    descent="-200"
    x-height="540"
    cap-height="700"
    bbox="-68.46 -234 1105 873.711"
    underline-thickness="50"
    underline-position="-100"
    stemh="31"
    stemv="33"
    unicode-range="U+0020-2122"
  />
    <missing-glyph />
    <glyph glyph-name="A" unicode="A" horiz-adv-x="680" 
d="M619.75 0l-87.96 202.75h-385.31l-86.4805 -202.75h-35l297 700h28.25l305 -700h-35.5zM336.67 652.48l-177.39 -418.98h359.46z" />
    <glyph glyph-name="Aacute" unicode="&#xc1;" horiz-adv-x="680" 
d="M475.51 784.03c-26.2998 0 -46.0195 19.3213 -46.0195 44.8408c0 25.5303 19.7197 44.8398 46.0195 44.8398c26.1904 0 45.7803 -19.1904 45.7803 -44.8408c0 -25.6396 -19.5898 -44.8398 -45.7803 -44.8398zM232.7 828.991
c0 -24.8701 -18.3701 -42.9805 -43.5303 -42.9805h-33.2998v85.7305h33.2998c25.2803 0 43.5303 -17.9902 43.5303 -42.75zM300.34 804.761v-18.751h-53.5703v85.7305h52.25v-18.6299h-31.9199v-14.8896h28.7305v-18.2197h-28.7305v-15.2402h33.2402zM338.83 839.5
l-7.84961 -53.4902h-20.7002l13.21 85.7305h20.4502l22.0303 -50.3096l22.1396 50.3096h20.4502l13.0898 -85.7305h-20.7002l-7.83984 53.4902l-24.6201 -53.7305h-5.0498zM475.511 854.63c-14.3496 0 -25.3799 -11.1602 -25.3799 -25.7598s11.0303 -25.75 25.3799 -25.75
s25.1494 11.0303 25.1494 25.75s-10.7998 25.7598 -25.1494 25.7598zM176.221 804.84h12.4102c13.7598 0 23.2402 10.0498 23.2402 24.1494c0 14.21 -9.48047 23.9102 -23.2402 23.9102h-12.4102v-48.0596zM619.751 -0l-87.96 202.75h-385.31l-86.4805 -202.75h-35l297 700
h28.25l305 -700h-35.5zM336.671 652.48l-177.39 -418.98h359.46z" />
    <glyph glyph-name="Acircumflex" unicode="&#xc2;" horiz-adv-x="680" 
d="M475.51 784.03c-26.2998 0 -46.0195 19.3213 -46.0195 44.8408c0 25.5303 19.7197 44.8398 46.0195 44.8398c26.1904 0 45.7803 -19.1904 45.7803 -44.8408c0 -25.6396 -19.5898 -44.8398 -45.7803 -44.8398zM232.7 828.991
c0 -24.8701 -18.3701 -42.9805 -43.5303 -42.9805h-33.2998v85.7305h33.2998c25.2803 0 43.5303 -17.9902 43.5303 -42.75zM300.34 804.761v-18.751h-53.5703v85.7305h52.25v-18.6299h-31.9199v-14.8896h28.7305v-18.2197h-28.7305v-15.2402h33.2402zM338.83 839.5
l-7.84961 -53.4902h-20.7002l13.21 85.7305h20.4502l22.0303 -50.3096l22.1396 50.3096h20.4502l13.0898 -85.7305h-20.7002l-7.83984 53.4902l-24.6201 -53.7305h-5.0498zM475.511 854.63c-14.3496 0 -25.3799 -11.1602 -25.3799 -25.7598s11.0303 -25.75 25.3799 -25.75
s25.1494 11.0303 25.1494 25.75s-10.7998 25.7598 -25.1494 25.7598zM176.221 804.84h12.4102c13.7598 0 23.2402 10.0498 23.2402 24.1494c0 14.21 -9.48047 23.9102 -23.2402 23.9102h-12.4102v-48.0596zM619.751 -0l-87.96 202.75h-385.31l-86.4805 -202.75h-35l297 700
h28.25l305 -700h-35.5zM336.671 652.48l-177.39 -418.98h359.46z" />
    <glyph glyph-name="Adieresis" unicode="&#xc4;" horiz-adv-x="680" 
d="M475.51 784.03c-26.2998 0 -46.0195 19.3213 -46.0195 44.8408c0 25.5303 19.7197 44.8398 46.0195 44.8398c26.1904 0 45.7803 -19.1904 45.7803 -44.8408c0 -25.6396 -19.5898 -44.8398 -45.7803 -44.8398zM232.7 828.991
c0 -24.8701 -18.3701 -42.9805 -43.5303 -42.9805h-33.2998v85.7305h33.2998c25.2803 0 43.5303 -17.9902 43.5303 -42.75zM300.34 804.761v-18.751h-53.5703v85.7305h52.25v-18.6299h-31.9199v-14.8896h28.7305v-18.2197h-28.7305v-15.2402h33.2402zM338.83 839.5
l-7.84961 -53.4902h-20.7002l13.21 85.7305h20.4502l22.0303 -50.3096l22.1396 50.3096h20.4502l13.0898 -85.7305h-20.7002l-7.83984 53.4902l-24.6201 -53.7305h-5.0498zM475.511 854.63c-14.3496 0 -25.3799 -11.1602 -25.3799 -25.7598s11.0303 -25.75 25.3799 -25.75
s25.1494 11.0303 25.1494 25.75s-10.7998 25.7598 -25.1494 25.7598zM176.221 804.84h12.4102c13.7598 0 23.2402 10.0498 23.2402 24.1494c0 14.21 -9.48047 23.9102 -23.2402 23.9102h-12.4102v-48.0596zM619.751 -0l-87.96 202.75h-385.31l-86.4805 -202.75h-35l297 700
h28.25l305 -700h-35.5zM336.671 652.48l-177.39 -418.98h359.46z" />
    <glyph glyph-name="Agrave" unicode="&#xc0;" horiz-adv-x="680" 
d="M475.51 784.03c-26.2998 0 -46.0195 19.3213 -46.0195 44.8408c0 25.5303 19.7197 44.8398 46.0195 44.8398c26.1904 0 45.7803 -19.1904 45.7803 -44.8408c0 -25.6396 -19.5898 -44.8398 -45.7803 -44.8398zM232.7 828.991
c0 -24.8701 -18.3701 -42.9805 -43.5303 -42.9805h-33.2998v85.7305h33.2998c25.2803 0 43.5303 -17.9902 43.5303 -42.75zM300.34 804.761v-18.751h-53.5703v85.7305h52.25v-18.6299h-31.9199v-14.8896h28.7305v-18.2197h-28.7305v-15.2402h33.2402zM338.83 839.5
l-7.84961 -53.4902h-20.7002l13.21 85.7305h20.4502l22.0303 -50.3096l22.1396 50.3096h20.4502l13.0898 -85.7305h-20.7002l-7.83984 53.4902l-24.6201 -53.7305h-5.0498zM475.511 854.63c-14.3496 0 -25.3799 -11.1602 -25.3799 -25.7598s11.0303 -25.75 25.3799 -25.75
s25.1494 11.0303 25.1494 25.75s-10.7998 25.7598 -25.1494 25.7598zM176.221 804.84h12.4102c13.7598 0 23.2402 10.0498 23.2402 24.1494c0 14.21 -9.48047 23.9102 -23.2402 23.9102h-12.4102v-48.0596zM619.751 -0l-87.96 202.75h-385.31l-86.4805 -202.75h-35l297 700
h28.25l305 -700h-35.5zM336.671 652.48l-177.39 -418.98h359.46z" />
    <glyph glyph-name="Aring" unicode="&#xc5;" horiz-adv-x="680" 
d="M475.51 784.03c-26.2998 0 -46.0195 19.3213 -46.0195 44.8408c0 25.5303 19.7197 44.8398 46.0195 44.8398c26.1904 0 45.7803 -19.1904 45.7803 -44.8408c0 -25.6396 -19.5898 -44.8398 -45.7803 -44.8398zM232.7 828.991
c0 -24.8701 -18.3701 -42.9805 -43.5303 -42.9805h-33.2998v85.7305h33.2998c25.2803 0 43.5303 -17.9902 43.5303 -42.75zM300.34 804.761v-18.751h-53.5703v85.7305h52.25v-18.6299h-31.9199v-14.8896h28.7305v-18.2197h-28.7305v-15.2402h33.2402zM338.83 839.5
l-7.84961 -53.4902h-20.7002l13.21 85.7305h20.4502l22.0303 -50.3096l22.1396 50.3096h20.4502l13.0898 -85.7305h-20.7002l-7.83984 53.4902l-24.6201 -53.7305h-5.0498zM475.511 854.63c-14.3496 0 -25.3799 -11.1602 -25.3799 -25.7598s11.0303 -25.75 25.3799 -25.75
s25.1494 11.0303 25.1494 25.75s-10.7998 25.7598 -25.1494 25.7598zM176.221 804.84h12.4102c13.7598 0 23.2402 10.0498 23.2402 24.1494c0 14.21 -9.48047 23.9102 -23.2402 23.9102h-12.4102v-48.0596zM619.751 -0l-87.96 202.75h-385.31l-86.4805 -202.75h-35l297 700
h28.25l305 -700h-35.5zM336.671 652.48l-177.39 -418.98h359.46z" />
    <glyph glyph-name="Atilde" unicode="&#xc3;" horiz-adv-x="680" 
d="M475.51 784.03c-26.2998 0 -46.0195 19.3213 -46.0195 44.8408c0 25.5303 19.7197 44.8398 46.0195 44.8398c26.1904 0 45.7803 -19.1904 45.7803 -44.8408c0 -25.6396 -19.5898 -44.8398 -45.7803 -44.8398zM232.7 828.991
c0 -24.8701 -18.3701 -42.9805 -43.5303 -42.9805h-33.2998v85.7305h33.2998c25.2803 0 43.5303 -17.9902 43.5303 -42.75zM300.34 804.761v-18.751h-53.5703v85.7305h52.25v-18.6299h-31.9199v-14.8896h28.7305v-18.2197h-28.7305v-15.2402h33.2402zM338.83 839.5
l-7.84961 -53.4902h-20.7002l13.21 85.7305h20.4502l22.0303 -50.3096l22.1396 50.3096h20.4502l13.0898 -85.7305h-20.7002l-7.83984 53.4902l-24.6201 -53.7305h-5.0498zM475.511 854.63c-14.3496 0 -25.3799 -11.1602 -25.3799 -25.7598s11.0303 -25.75 25.3799 -25.75
s25.1494 11.0303 25.1494 25.75s-10.7998 25.7598 -25.1494 25.7598zM176.221 804.84h12.4102c13.7598 0 23.2402 10.0498 23.2402 24.1494c0 14.21 -9.48047 23.9102 -23.2402 23.9102h-12.4102v-48.0596zM619.751 -0l-87.96 202.75h-385.31l-86.4805 -202.75h-35l297 700
h28.25l305 -700h-35.5zM336.671 652.48l-177.39 -418.98h359.46z" />
    <glyph glyph-name="AE" unicode="&#xc6;" 
d="M187.86 532.52c-50.2402 0 -87.8604 37.6201 -87.8604 89.0801c0 51.4502 37.6201 89.0801 87.8604 89.0801c50.25 0 87.8701 -37.6299 87.8701 -89.0801c0 -51.46 -37.6201 -89.0801 -87.8701 -89.0801zM187.86 687.13c-37.3701 0 -65.29 -27.9102 -65.29 -65.5303
s28.1602 -65.54 65.29 -65.54c37.1396 0 65.2998 27.9199 65.2998 65.54s-27.9199 65.5303 -65.2998 65.5303zM102.91 461.16l0.000976562 22.8193l169.91 27.9102v-23.54l-129.82 -21.4102l125.93 -57.7197v-6.07031l-125.79 -57.7598l129.68 -21.6104v-23.54
l-169.91 28.4004v22.3301l121.69 54.9805zM250.731 201.21v76.46h22.0898v-99.5195h-169.91v96.8496h21.8496v-73.79h50.2402v67.4805h21.3604v-67.4805h54.3701zM187.861 143.689c49.2803 0 84.9609 -36.1699 84.9609 -86.1699v-57.5195h-169.91v57.5195
c0 50 35.6797 86.1699 84.9492 86.1699zM251.212 23.0596l0.000976562 33.7305c0 37.1396 -26.7002 63.3496 -63.3506 63.3496s-63.3506 -26.21 -63.3506 -63.3496v-33.7305h126.7z" />
    <glyph glyph-name="B" unicode="B" horiz-adv-x="644" 
d="M447.49 368.91c76.0303 -22.3496 131.01 -94.0596 131.01 -178.92c0 -105.25 -81.75 -190 -204.75 -190h-266.25v700h265.25c110.5 0 184.75 -74.75 184.75 -169.5c0 -73 -45.7002 -137.69 -110.01 -161.58zM379.489 667.74h-239.5v-283.25h244.75
c78.75 0 139.5 67.25 139.5 142.75c0 78.75 -64 140.5 -144.75 140.5zM380.739 32.4902c92.5 0 164.25 70 164.25 160.25c0 88.5 -71 159.5 -160.5 159.5h-244.5v-319.75h240.75z" />
    <glyph glyph-name="C" unicode="C" horiz-adv-x="778" 
d="M412 -10.25c-208.75 0 -356.75 150.25 -356.75 359.5s148.75 361 356.75 361c154 0 274.5 -84.5 322.5 -221h-34c-46.5 117.75 -152.5 188.75 -288.5 188.75c-188 0 -323.5 -137.25 -323.5 -328.75s134.75 -327.25 323.5 -327.25c139.75 0 248.25 75 294.5 201h33.25
c-47.25 -145 -170 -233.25 -327.75 -233.25z" />
    <glyph glyph-name="Ccedilla" unicode="&#xc7;" horiz-adv-x="778" 
d="M544.27 873.71c26.1904 0 45.79 -19.2002 45.79 -44.8398s-19.5996 -44.8398 -45.79 -44.8398c-26.2998 0 -46.0098 19.3096 -46.0098 44.8398s19.71 44.8398 46.0098 44.8398zM257.93 871.729c25.2803 0 43.5303 -17.9902 43.5303 -42.75
c0 -24.8701 -18.3701 -42.9805 -43.5303 -42.9805h-33.2998v85.7305h33.2998zM335.859 819.989l-0.00976562 -15.2412h33.25v-18.75h-53.5703v85.7305h52.25v-18.6299h-31.9199v-14.8896h28.7402v-18.2197h-28.7402zM456.869 871.729h20.4502l13.0898 -85.7305h-20.6904
l-7.84961 53.4902l-24.6201 -53.7305h-5.0498l-24.6201 53.7305l-7.83984 -53.4902h-20.7002l13.21 85.7305h20.4502l22.0303 -50.2998zM544.27 803.108c14.3496 0 25.1494 11.04 25.1494 25.7598s-10.7998 25.7598 -25.1494 25.7598s-25.3799 -11.1602 -25.3799 -25.7598
s11.0303 -25.7598 25.3799 -25.7598zM257.39 804.828c13.7598 0 23.2295 10.0605 23.2295 24.1602c0 14.21 -9.46973 23.9102 -23.2295 23.9102h-12.4199v-48.0703h12.4199zM412 -10.2607c-208.75 0 -356.75 150.25 -356.75 359.5s148.75 361 356.75 361
c154 0 274.5 -84.5 322.5 -221h-34c-46.5 117.75 -152.5 188.75 -288.5 188.75c-188 0 -323.5 -137.25 -323.5 -328.75s134.75 -327.25 323.5 -327.25c139.75 0 248.25 75 294.5 201h33.25c-47.25 -145 -170 -233.25 -327.75 -233.25z" />
    <glyph glyph-name="D" unicode="D" horiz-adv-x="724" 
d="M313.75 700c206 0 355 -147 355 -349.25c0 -203 -149.75 -350.75 -355 -350.75h-206.25v700h206.25zM313 31.25c186.75 0 322.5 134.75 322.5 319.5c0 184 -135 318 -322.5 318h-172.75v-637.5h172.75z" />
    <glyph glyph-name="Eth" unicode="&#xd0;" horiz-adv-x="724" 
d="M436.26 784.03c-26.2998 0 -46.0195 19.3213 -46.0195 44.8408c0 25.5303 19.7197 44.8398 46.0195 44.8398c26.1904 0 45.7803 -19.1904 45.7803 -44.8408c0 -25.6396 -19.5898 -44.8398 -45.7803 -44.8398zM193.45 828.991
c0 -24.8701 -18.3701 -42.9805 -43.5303 -42.9805h-33.2998v85.7305h33.2998c25.2803 0 43.5303 -17.9902 43.5303 -42.75zM261.09 804.761v-18.751h-53.5703v85.7305h52.25v-18.6299h-31.9199v-14.8896h28.7305v-18.2197h-28.7305v-15.2402h33.2402zM299.58 839.5
l-7.84961 -53.4902h-20.7002l13.21 85.7305h20.4502l22.0303 -50.3096l22.1396 50.3096h20.4502l13.0898 -85.7305h-20.7002l-7.83984 53.4902l-24.6201 -53.7305h-5.0498zM436.261 854.63c-14.3496 0 -25.3799 -11.1602 -25.3799 -25.7598s11.0303 -25.75 25.3799 -25.75
s25.1494 11.0303 25.1494 25.75s-10.7998 25.7598 -25.1494 25.7598zM136.971 804.84h12.4102c13.7598 0 23.2402 10.0498 23.2402 24.1494c0 14.21 -9.48047 23.9102 -23.2402 23.9102h-12.4102v-48.0596zM313.751 700c206 0 355 -147 355 -349.25
c0 -203 -149.75 -350.75 -355 -350.75h-206.25v700h206.25zM313.001 31.25c186.75 0 322.5 134.75 322.5 319.5c0 184 -135 318 -322.5 318h-172.75v-637.5h172.75z" />
    <glyph glyph-name="E" unicode="E" horiz-adv-x="542" 
d="M140.25 31.75h354.75v-31.75h-387.5v700h376.5v-31.5h-343.75v-287.25h317.75v-31h-317.75v-318.5z" />
    <glyph glyph-name="Eacute" unicode="&#xc9;" horiz-adv-x="542" 
d="M431.51 784.03c-26.2998 0 -46.0195 19.3213 -46.0195 44.8408c0 25.5303 19.7197 44.8398 46.0195 44.8398c26.1904 0 45.7803 -19.1904 45.7803 -44.8408c0 -25.6396 -19.5898 -44.8398 -45.7803 -44.8398zM188.7 828.991
c0 -24.8701 -18.3701 -42.9805 -43.5303 -42.9805h-33.2998v85.7305h33.2998c25.2803 0 43.5303 -17.9902 43.5303 -42.75zM256.34 804.761v-18.751h-53.5703v85.7305h52.25v-18.6299h-31.9199v-14.8896h28.7305v-18.2197h-28.7305v-15.2402h33.2402zM294.83 839.5
l-7.84961 -53.4902h-20.7002l13.21 85.7305h20.4502l22.0303 -50.3096l22.1396 50.3096h20.4502l13.0898 -85.7305h-20.7002l-7.83984 53.4902l-24.6201 -53.7305h-5.0498zM431.511 854.63c-14.3496 0 -25.3799 -11.1602 -25.3799 -25.7598s11.0303 -25.75 25.3799 -25.75
s25.1494 11.0303 25.1494 25.75s-10.7998 25.7598 -25.1494 25.7598zM132.221 804.84h12.4102c13.7598 0 23.2402 10.0498 23.2402 24.1494c0 14.21 -9.48047 23.9102 -23.2402 23.9102h-12.4102v-48.0596zM140.251 31.75h354.75v-31.75h-387.5v700h376.5v-31.5h-343.75
v-287.25h317.75v-31h-317.75v-318.5z" />
    <glyph glyph-name="Ecircumflex" unicode="&#xca;" horiz-adv-x="542" 
d="M431.51 784.03c-26.2998 0 -46.0195 19.3213 -46.0195 44.8408c0 25.5303 19.7197 44.8398 46.0195 44.8398c26.1904 0 45.7803 -19.1904 45.7803 -44.8408c0 -25.6396 -19.5898 -44.8398 -45.7803 -44.8398zM188.7 828.991
c0 -24.8701 -18.3701 -42.9805 -43.5303 -42.9805h-33.2998v85.7305h33.2998c25.2803 0 43.5303 -17.9902 43.5303 -42.75zM256.34 804.761v-18.751h-53.5703v85.7305h52.25v-18.6299h-31.9199v-14.8896h28.7305v-18.2197h-28.7305v-15.2402h33.2402zM294.83 839.5
l-7.84961 -53.4902h-20.7002l13.21 85.7305h20.4502l22.0303 -50.3096l22.1396 50.3096h20.4502l13.0898 -85.7305h-20.7002l-7.83984 53.4902l-24.6201 -53.7305h-5.0498zM431.511 854.63c-14.3496 0 -25.3799 -11.1602 -25.3799 -25.7598s11.0303 -25.75 25.3799 -25.75
s25.1494 11.0303 25.1494 25.75s-10.7998 25.7598 -25.1494 25.7598zM132.221 804.84h12.4102c13.7598 0 23.2402 10.0498 23.2402 24.1494c0 14.21 -9.48047 23.9102 -23.2402 23.9102h-12.4102v-48.0596zM140.251 31.75h354.75v-31.75h-387.5v700h376.5v-31.5h-343.75
v-287.25h317.75v-31h-317.75v-318.5z" />
    <glyph glyph-name="Edieresis" unicode="&#xcb;" horiz-adv-x="542" 
d="M431.51 784.03c-26.2998 0 -46.0195 19.3213 -46.0195 44.8408c0 25.5303 19.7197 44.8398 46.0195 44.8398c26.1904 0 45.7803 -19.1904 45.7803 -44.8408c0 -25.6396 -19.5898 -44.8398 -45.7803 -44.8398zM188.7 828.991
c0 -24.8701 -18.3701 -42.9805 -43.5303 -42.9805h-33.2998v85.7305h33.2998c25.2803 0 43.5303 -17.9902 43.5303 -42.75zM256.34 804.761v-18.751h-53.5703v85.7305h52.25v-18.6299h-31.9199v-14.8896h28.7305v-18.2197h-28.7305v-15.2402h33.2402zM294.83 839.5
l-7.84961 -53.4902h-20.7002l13.21 85.7305h20.4502l22.0303 -50.3096l22.1396 50.3096h20.4502l13.0898 -85.7305h-20.7002l-7.83984 53.4902l-24.6201 -53.7305h-5.0498zM431.511 854.63c-14.3496 0 -25.3799 -11.1602 -25.3799 -25.7598s11.0303 -25.75 25.3799 -25.75
s25.1494 11.0303 25.1494 25.75s-10.7998 25.7598 -25.1494 25.7598zM132.221 804.84h12.4102c13.7598 0 23.2402 10.0498 23.2402 24.1494c0 14.21 -9.48047 23.9102 -23.2402 23.9102h-12.4102v-48.0596zM140.251 31.75h354.75v-31.75h-387.5v700h376.5v-31.5h-343.75
v-287.25h317.75v-31h-317.75v-318.5z" />
    <glyph glyph-name="Egrave" unicode="&#xc8;" horiz-adv-x="542" 
d="M431.51 784.03c-26.2998 0 -46.0195 19.3213 -46.0195 44.8408c0 25.5303 19.7197 44.8398 46.0195 44.8398c26.1904 0 45.7803 -19.1904 45.7803 -44.8408c0 -25.6396 -19.5898 -44.8398 -45.7803 -44.8398zM188.7 828.991
c0 -24.8701 -18.3701 -42.9805 -43.5303 -42.9805h-33.2998v85.7305h33.2998c25.2803 0 43.5303 -17.9902 43.5303 -42.75zM256.34 804.761v-18.751h-53.5703v85.7305h52.25v-18.6299h-31.9199v-14.8896h28.7305v-18.2197h-28.7305v-15.2402h33.2402zM294.83 839.5
l-7.84961 -53.4902h-20.7002l13.21 85.7305h20.4502l22.0303 -50.3096l22.1396 50.3096h20.4502l13.0898 -85.7305h-20.7002l-7.83984 53.4902l-24.6201 -53.7305h-5.0498zM431.511 854.63c-14.3496 0 -25.3799 -11.1602 -25.3799 -25.7598s11.0303 -25.75 25.3799 -25.75
s25.1494 11.0303 25.1494 25.75s-10.7998 25.7598 -25.1494 25.7598zM132.221 804.84h12.4102c13.7598 0 23.2402 10.0498 23.2402 24.1494c0 14.21 -9.48047 23.9102 -23.2402 23.9102h-12.4102v-48.0596zM140.251 31.75h354.75v-31.75h-387.5v700h376.5v-31.5h-343.75
v-287.25h317.75v-31h-317.75v-318.5z" />
    <glyph glyph-name="F" unicode="F" horiz-adv-x="511" 
d="M480.25 668.5h-340v-300.75h314v-31h-314v-336.75h-32.75v700h372.75v-31.5z" />
    <glyph glyph-name="G" unicode="G" horiz-adv-x="800" 
d="M371.5 328.25h377.249c-7 -199.25 -148 -337.25 -343.5 -337.25c-205.25 0 -349.25 151.5 -349.25 358.25c0 207.25 148.5 359.5 348.75 359.5c163.75 0 302 -103 332.25 -246.25h-33.5c-30 125 -153.25 214 -298.25 214c-182.5 0 -316 -138 -316 -327.25
c0 -191.25 130.5 -326 316 -326c168.46 0 291.99 111.03 308.681 273.5h-342.43v31.5z" />
    <glyph glyph-name="H" unicode="H" horiz-adv-x="728" 
d="M588 700h32.75v-700h-32.75v349.25h-447.75v-349.25h-32.75v700h32.75v-319h447.75v319z" />
    <glyph glyph-name="I" unicode="I" horiz-adv-x="248" 
d="M107.5 0v700h32.75v-700h-32.75z" />
    <glyph glyph-name="Iacute" unicode="&#xcd;" horiz-adv-x="248" 
d="M260.68 873.71c26.1797 0 45.7793 -19.1895 45.7793 -44.8398c0 -25.6396 -19.5996 -44.8398 -45.7793 -44.8398c-26.3096 0 -46.0195 19.3203 -46.0195 44.8398c0 25.5303 19.71 44.8398 46.0195 44.8398zM-25.6699 871.741c25.2803 0 43.54 -17.9902 43.54 -42.75
c0 -24.8701 -18.3701 -42.9805 -43.54 -42.9805h-33.29v85.7305h33.29zM52.2598 820.001v-15.2412h33.25v-18.75h-53.5801v85.7305h52.25v-18.6299h-31.9199v-14.8896h28.7402v-18.2197h-28.7402zM173.279 871.74h20.4502l13.0801 -85.7305h-20.6904l-7.84961 53.4902
l-24.6201 -53.7305h-5.04004l-24.6201 53.7305l-7.83984 -53.4902h-20.7002l13.21 85.7305h20.4404l22.04 -50.3096zM260.68 803.12c14.3496 0 25.1396 11.0303 25.1396 25.75s-10.79 25.7598 -25.1396 25.7598s-25.3896 -11.1602 -25.3896 -25.7598
s11.04 -25.75 25.3896 -25.75zM-26.2002 804.84c13.7598 0 23.2295 10.0498 23.2295 24.1494c0 14.21 -9.46973 23.9102 -23.2295 23.9102h-12.4199v-48.0596h12.4199zM107.5 -0v700h32.75v-700h-32.75z" />
    <glyph glyph-name="Icircumflex" unicode="&#xce;" horiz-adv-x="787" 
d="M657.51 873.71c26.1904 0 45.7803 -19.1895 45.7803 -44.8398c0 -25.6396 -19.5898 -44.8398 -45.7803 -44.8398c-26.2998 0 -46.0195 19.3203 -46.0195 44.8398c0 25.5303 19.7197 44.8398 46.0195 44.8398zM371.17 871.741c25.2803 0 43.5303 -17.9902 43.5303 -42.75
c0 -24.8701 -18.3701 -42.9805 -43.5303 -42.9805h-33.2998v85.7305h33.2998zM449.1 820.001v-15.2412h33.2402v-18.75h-53.5703v85.7305h52.25v-18.6299h-31.9199v-14.8896h28.7305v-18.2197h-28.7305zM570.109 871.74h20.4502l13.0898 -85.7305h-20.7002l-7.83984 53.4902
l-24.6201 -53.7305h-5.0498l-24.6104 53.7305l-7.84961 -53.4902h-20.7002l13.21 85.7305h20.4502l22.0303 -50.3096zM657.51 803.12c14.3496 0 25.1494 11.0303 25.1494 25.75s-10.7998 25.7598 -25.1494 25.7598s-25.3799 -11.1602 -25.3799 -25.7598
s11.0303 -25.75 25.3799 -25.75zM370.63 804.84c13.7598 0 23.2402 10.0498 23.2402 24.1494c0 14.21 -9.48047 23.9102 -23.2402 23.9102h-12.4102v-48.0596h12.4102zM107.5 -0v700h32.75v-700h-32.75z" />
    <glyph glyph-name="Idieresis" unicode="&#xcf;" horiz-adv-x="248" 
d="M261.28 873.71c26.1797 0 45.7793 -19.1895 45.7793 -44.8398c0 -25.6396 -19.5996 -44.8398 -45.7793 -44.8398c-26.3096 0 -46.0195 19.3203 -46.0195 44.8398c0 25.5303 19.71 44.8398 46.0195 44.8398zM-25.0693 871.741c25.2803 0 43.54 -17.9902 43.54 -42.75
c0 -24.8701 -18.3799 -42.9805 -43.54 -42.9805h-33.29v85.7305h33.29zM52.8604 820.001v-15.2412h33.25v-18.75h-53.5801v85.7305h52.25v-18.6299h-31.9199v-14.8896h28.7402v-18.2197h-28.7402zM173.88 871.74h20.4492l13.0801 -85.7305h-20.6904l-7.84961 53.4902
l-24.6201 -53.7305h-5.04004l-24.6201 53.7305l-7.83984 -53.4902h-20.7002l13.21 85.7305h20.4404l22.0303 -50.3096zM261.279 803.12c14.3496 0 25.1396 11.0303 25.1396 25.75s-10.79 25.7598 -25.1396 25.7598c-14.3604 0 -25.3906 -11.1602 -25.3906 -25.7598
s11.0303 -25.75 25.3906 -25.75zM-25.6006 804.84c13.7598 0 23.2295 10.0498 23.2295 24.1494c0 14.21 -9.46973 23.9102 -23.2295 23.9102h-12.4199v-48.0596h12.4199zM107.499 -0v700h32.75v-700h-32.75z" />
    <glyph glyph-name="Igrave" unicode="&#xcc;" horiz-adv-x="248" 
d="M260.76 873.71c26.1904 0 45.7803 -19.1895 45.7803 -44.8398c0 -25.6396 -19.5898 -44.8398 -45.7803 -44.8398c-26.2998 0 -46.0195 19.3203 -46.0195 44.8398c0 25.5303 19.7197 44.8398 46.0195 44.8398zM-25.5801 871.741
c25.2803 0 43.5303 -17.9902 43.5303 -42.75c0 -24.8701 -18.3701 -42.9805 -43.5303 -42.9805h-33.2998v85.7305h33.2998zM52.3496 820.001v-15.2412h33.2402v-18.75h-53.5703v85.7305h52.25v-18.6299h-31.9199v-14.8896h28.7305v-18.2197h-28.7305zM173.359 871.74
h20.4502l13.0898 -85.7305h-20.7002l-7.83984 53.4902l-24.6201 -53.7305h-5.0498l-24.6104 53.7305l-7.84961 -53.4902h-20.7002l13.21 85.7305h20.4502l22.0303 -50.3096zM260.76 803.12c14.3496 0 25.1494 11.0303 25.1494 25.75s-10.7998 25.7598 -25.1494 25.7598
s-25.3799 -11.1602 -25.3799 -25.7598s11.0303 -25.75 25.3799 -25.75zM-26.1201 804.84c13.7598 0 23.2402 10.0498 23.2402 24.1494c0 14.21 -9.48047 23.9102 -23.2402 23.9102h-12.4102v-48.0596h12.4102zM107.5 -0v700h32.75v-700h-32.75z" />
    <glyph glyph-name="J" unicode="J" horiz-adv-x="588" 
d="M261.25 -10.5c-128 0 -229 100.75 -229 235.25v6.75h32.5v-5.75c0 -115.75 85.5 -204 196.5 -204c109.5 0 195 89 195 204v474.25h32.5v-475.25c0 -134.5 -100.25 -235.25 -227.5 -235.25z" />
    <glyph glyph-name="K" unicode="K" horiz-adv-x="604" 
d="M558.5 0l-299.2 348.5h-119.05v-348.5h-32.75v700h32.75v-320.25h119l273.5 320.25h42.25l-286.5 -335.42l312.5 -364.58h-42.5z" />
    <glyph glyph-name="L" unicode="L" horiz-adv-x="504" 
d="M140.25 31.25h342v-31.25h-374.75v700h32.75v-668.75z" />
    <glyph glyph-name="M" unicode="M" horiz-adv-x="943" 
d="M890.25 0h-33.25l-112.05 637.2l-267.95 -605.45h-12.25l-267.24 604.69l-113.01 -636.44h-33.25l123.75 700h29l266.27 -608.07l267.98 608.07h29.5z" />
    <glyph glyph-name="N" unicode="N" horiz-adv-x="745" 
d="M605 700h32.25v-700h-28.25l-469.25 641.78v-641.78h-32.25v700h29.75l467.75 -640.49v640.49z" />
    <glyph glyph-name="Ntilde" unicode="&#xd1;" horiz-adv-x="745" 
d="M525.51 784.03c-26.2998 0 -46.0195 19.3213 -46.0195 44.8408c0 25.5303 19.7197 44.8398 46.0195 44.8398c26.1904 0 45.7803 -19.1904 45.7803 -44.8408c0 -25.6396 -19.5898 -44.8398 -45.7803 -44.8398zM282.7 828.991
c0 -24.8701 -18.3701 -42.9805 -43.5303 -42.9805h-33.2998v85.7305h33.2998c25.2803 0 43.5303 -17.9902 43.5303 -42.75zM350.34 804.761v-18.751h-53.5703v85.7305h52.25v-18.6299h-31.9199v-14.8896h28.7305v-18.2197h-28.7305v-15.2402h33.2402zM388.83 839.5
l-7.84961 -53.4902h-20.7002l13.21 85.7305h20.4502l22.0303 -50.3096l22.1396 50.3096h20.4502l13.0898 -85.7305h-20.7002l-7.83984 53.4902l-24.6201 -53.7305h-5.0498zM525.511 854.63c-14.3496 0 -25.3799 -11.1602 -25.3799 -25.7598s11.0303 -25.75 25.3799 -25.75
s25.1494 11.0303 25.1494 25.75s-10.7998 25.7598 -25.1494 25.7598zM226.221 804.84h12.4102c13.7598 0 23.2402 10.0498 23.2402 24.1494c0 14.21 -9.48047 23.9102 -23.2402 23.9102h-12.4102v-48.0596zM605.001 700h32.25v-700h-28.25l-469.25 641.78v-641.78h-32.25
v700h29.75l467.75 -640.49v640.49z" />
    <glyph glyph-name="O" unicode="O" horiz-adv-x="833" 
d="M416.25 -10.5c-210.5 0 -361 155 -361 359.75c0 205.5 150.5 361.25 361 361.25s361 -155 361 -361.25c0 -205.5 -150.5 -359.75 -361 -359.75zM416.25 21.75c191 0 327.75 140.5 327.75 327.5c0 187.75 -136.75 329 -327.75 329s-327.75 -142.25 -327.75 -329
c0 -186 136.75 -327.5 327.75 -327.5z" />
    <glyph glyph-name="Oacute" unicode="&#xd3;" horiz-adv-x="833" 
d="M555.02 873.71c26.1904 0 45.79 -19.2002 45.79 -44.8398s-19.5996 -44.8398 -45.79 -44.8398c-26.2998 0 -46.0098 19.3096 -46.0098 44.8398s19.71 44.8398 46.0098 44.8398zM268.68 871.729c25.2803 0 43.5303 -17.9902 43.5303 -42.75
c0 -24.8701 -18.3701 -42.9805 -43.5303 -42.9805h-33.2998v85.7305h33.2998zM346.609 819.989l-0.00976562 -15.2412h33.25v-18.75h-53.5703v85.7305h52.25v-18.6299h-31.9199v-14.8896h28.7402v-18.2197h-28.7402zM467.619 871.729h20.4502l13.0898 -85.7305h-20.6904
l-7.84961 53.4902l-24.6201 -53.7305h-5.0498l-24.6201 53.7305l-7.83984 -53.4902h-20.7002l13.21 85.7305h20.4502l22.0303 -50.2998zM555.02 803.108c14.3496 0 25.1494 11.04 25.1494 25.7598s-10.7998 25.7598 -25.1494 25.7598s-25.3799 -11.1602 -25.3799 -25.7598
s11.0303 -25.7598 25.3799 -25.7598zM268.14 804.828c13.7598 0 23.2295 10.0605 23.2295 24.1602c0 14.21 -9.46973 23.9102 -23.2295 23.9102h-12.4199v-48.0703h12.4199zM416.25 -10.5107c-210.5 0 -361 155 -361 359.75c0 205.5 150.5 361.25 361 361.25
s361 -155 361 -361.25c0 -205.5 -150.5 -359.75 -361 -359.75zM416.25 21.7393c191 0 327.75 140.5 327.75 327.5c0 187.75 -136.75 329 -327.75 329s-327.75 -142.25 -327.75 -329c0 -186 136.75 -327.5 327.75 -327.5z" />
    <glyph glyph-name="Ocircumflex" unicode="&#xd4;" horiz-adv-x="833" 
d="M555.02 873.71c26.1904 0 45.79 -19.2002 45.79 -44.8398s-19.5996 -44.8398 -45.79 -44.8398c-26.2998 0 -46.0098 19.3096 -46.0098 44.8398s19.71 44.8398 46.0098 44.8398zM268.68 871.729c25.2803 0 43.5303 -17.9902 43.5303 -42.75
c0 -24.8701 -18.3701 -42.9805 -43.5303 -42.9805h-33.2998v85.7305h33.2998zM346.609 819.989l-0.00976562 -15.2412h33.25v-18.75h-53.5703v85.7305h52.25v-18.6299h-31.9199v-14.8896h28.7402v-18.2197h-28.7402zM467.619 871.729h20.4502l13.0898 -85.7305h-20.6904
l-7.84961 53.4902l-24.6201 -53.7305h-5.0498l-24.6201 53.7305l-7.83984 -53.4902h-20.7002l13.21 85.7305h20.4502l22.0303 -50.2998zM555.02 803.108c14.3496 0 25.1494 11.04 25.1494 25.7598s-10.7998 25.7598 -25.1494 25.7598s-25.3799 -11.1602 -25.3799 -25.7598
s11.0303 -25.7598 25.3799 -25.7598zM268.14 804.828c13.7598 0 23.2295 10.0605 23.2295 24.1602c0 14.21 -9.46973 23.9102 -23.2295 23.9102h-12.4199v-48.0703h12.4199zM416.25 -10.5107c-210.5 0 -361 155 -361 359.75c0 205.5 150.5 361.25 361 361.25
s361 -155 361 -361.25c0 -205.5 -150.5 -359.75 -361 -359.75zM416.25 21.7393c191 0 327.75 140.5 327.75 327.5c0 187.75 -136.75 329 -327.75 329s-327.75 -142.25 -327.75 -329c0 -186 136.75 -327.5 327.75 -327.5z" />
    <glyph glyph-name="Odieresis" unicode="&#xd6;" horiz-adv-x="833" 
d="M555.02 873.71c26.1904 0 45.79 -19.2002 45.79 -44.8398s-19.5996 -44.8398 -45.79 -44.8398c-26.2998 0 -46.0098 19.3096 -46.0098 44.8398s19.71 44.8398 46.0098 44.8398zM268.68 871.729c25.2803 0 43.5303 -17.9902 43.5303 -42.75
c0 -24.8701 -18.3701 -42.9805 -43.5303 -42.9805h-33.2998v85.7305h33.2998zM346.609 819.989l-0.00976562 -15.2412h33.25v-18.75h-53.5703v85.7305h52.25v-18.6299h-31.9199v-14.8896h28.7402v-18.2197h-28.7402zM467.619 871.729h20.4502l13.0898 -85.7305h-20.6904
l-7.84961 53.4902l-24.6201 -53.7305h-5.0498l-24.6201 53.7305l-7.83984 -53.4902h-20.7002l13.21 85.7305h20.4502l22.0303 -50.2998zM555.02 803.108c14.3496 0 25.1494 11.04 25.1494 25.7598s-10.7998 25.7598 -25.1494 25.7598s-25.3799 -11.1602 -25.3799 -25.7598
s11.0303 -25.7598 25.3799 -25.7598zM268.14 804.828c13.7598 0 23.2295 10.0605 23.2295 24.1602c0 14.21 -9.46973 23.9102 -23.2295 23.9102h-12.4199v-48.0703h12.4199zM416.25 -10.5107c-210.5 0 -361 155 -361 359.75c0 205.5 150.5 361.25 361 361.25
s361 -155 361 -361.25c0 -205.5 -150.5 -359.75 -361 -359.75zM416.25 21.7393c191 0 327.75 140.5 327.75 327.5c0 187.75 -136.75 329 -327.75 329s-327.75 -142.25 -327.75 -329c0 -186 136.75 -327.5 327.75 -327.5z" />
    <glyph glyph-name="Ograve" unicode="&#xd2;" horiz-adv-x="833" 
d="M555.02 873.71c26.1904 0 45.79 -19.2002 45.79 -44.8398s-19.5996 -44.8398 -45.79 -44.8398c-26.2998 0 -46.0098 19.3096 -46.0098 44.8398s19.71 44.8398 46.0098 44.8398zM268.68 871.729c25.2803 0 43.5303 -17.9902 43.5303 -42.75
c0 -24.8701 -18.3701 -42.9805 -43.5303 -42.9805h-33.2998v85.7305h33.2998zM346.609 819.989l-0.00976562 -15.2412h33.25v-18.75h-53.5703v85.7305h52.25v-18.6299h-31.9199v-14.8896h28.7402v-18.2197h-28.7402zM467.619 871.729h20.4502l13.0898 -85.7305h-20.6904
l-7.84961 53.4902l-24.6201 -53.7305h-5.0498l-24.6201 53.7305l-7.83984 -53.4902h-20.7002l13.21 85.7305h20.4502l22.0303 -50.2998zM555.02 803.108c14.3496 0 25.1494 11.04 25.1494 25.7598s-10.7998 25.7598 -25.1494 25.7598s-25.3799 -11.1602 -25.3799 -25.7598
s11.0303 -25.7598 25.3799 -25.7598zM268.14 804.828c13.7598 0 23.2295 10.0605 23.2295 24.1602c0 14.21 -9.46973 23.9102 -23.2295 23.9102h-12.4199v-48.0703h12.4199zM416.25 -10.5107c-210.5 0 -361 155 -361 359.75c0 205.5 150.5 361.25 361 361.25
s361 -155 361 -361.25c0 -205.5 -150.5 -359.75 -361 -359.75zM416.25 21.7393c191 0 327.75 140.5 327.75 327.5c0 187.75 -136.75 329 -327.75 329s-327.75 -142.25 -327.75 -329c0 -186 136.75 -327.5 327.75 -327.5z" />
    <glyph glyph-name="Oslash" unicode="&#xd8;" horiz-adv-x="833" 
d="M555.02 873.71c26.1904 0 45.79 -19.2002 45.79 -44.8398s-19.5996 -44.8398 -45.79 -44.8398c-26.2998 0 -46.0098 19.3096 -46.0098 44.8398s19.71 44.8398 46.0098 44.8398zM268.68 871.729c25.2803 0 43.5303 -17.9902 43.5303 -42.75
c0 -24.8701 -18.3701 -42.9805 -43.5303 -42.9805h-33.2998v85.7305h33.2998zM346.609 819.989l-0.00976562 -15.2412h33.25v-18.75h-53.5703v85.7305h52.25v-18.6299h-31.9199v-14.8896h28.7402v-18.2197h-28.7402zM467.619 871.729h20.4502l13.0898 -85.7305h-20.6904
l-7.84961 53.4902l-24.6201 -53.7305h-5.0498l-24.6201 53.7305l-7.83984 -53.4902h-20.7002l13.21 85.7305h20.4502l22.0303 -50.2998zM555.02 803.108c14.3496 0 25.1494 11.04 25.1494 25.7598s-10.7998 25.7598 -25.1494 25.7598s-25.3799 -11.1602 -25.3799 -25.7598
s11.0303 -25.7598 25.3799 -25.7598zM268.14 804.828c13.7598 0 23.2295 10.0605 23.2295 24.1602c0 14.21 -9.46973 23.9102 -23.2295 23.9102h-12.4199v-48.0703h12.4199zM416.25 -10.5107c-210.5 0 -361 155 -361 359.75c0 205.5 150.5 361.25 361 361.25
s361 -155 361 -361.25c0 -205.5 -150.5 -359.75 -361 -359.75zM416.25 21.7393c191 0 327.75 140.5 327.75 327.5c0 187.75 -136.75 329 -327.75 329s-327.75 -142.25 -327.75 -329c0 -186 136.75 -327.5 327.75 -327.5z" />
    <glyph glyph-name="Otilde" unicode="&#xd5;" horiz-adv-x="833" 
d="M555.02 873.71c26.1904 0 45.79 -19.2002 45.79 -44.8398s-19.5996 -44.8398 -45.79 -44.8398c-26.2998 0 -46.0098 19.3096 -46.0098 44.8398s19.71 44.8398 46.0098 44.8398zM268.68 871.729c25.2803 0 43.5303 -17.9902 43.5303 -42.75
c0 -24.8701 -18.3701 -42.9805 -43.5303 -42.9805h-33.2998v85.7305h33.2998zM346.609 819.989l-0.00976562 -15.2412h33.25v-18.75h-53.5703v85.7305h52.25v-18.6299h-31.9199v-14.8896h28.7402v-18.2197h-28.7402zM467.619 871.729h20.4502l13.0898 -85.7305h-20.6904
l-7.84961 53.4902l-24.6201 -53.7305h-5.0498l-24.6201 53.7305l-7.83984 -53.4902h-20.7002l13.21 85.7305h20.4502l22.0303 -50.2998zM555.02 803.108c14.3496 0 25.1494 11.04 25.1494 25.7598s-10.7998 25.7598 -25.1494 25.7598s-25.3799 -11.1602 -25.3799 -25.7598
s11.0303 -25.7598 25.3799 -25.7598zM268.14 804.828c13.7598 0 23.2295 10.0605 23.2295 24.1602c0 14.21 -9.46973 23.9102 -23.2295 23.9102h-12.4199v-48.0703h12.4199zM416.25 -10.5107c-210.5 0 -361 155 -361 359.75c0 205.5 150.5 361.25 361 361.25
s361 -155 361 -361.25c0 -205.5 -150.5 -359.75 -361 -359.75zM416.25 21.7393c191 0 327.75 140.5 327.75 327.5c0 187.75 -136.75 329 -327.75 329s-327.75 -142.25 -327.75 -329c0 -186 136.75 -327.5 327.75 -327.5z" />
    <glyph glyph-name="OE" unicode="&#x152;" horiz-adv-x="833" 
d="M555.02 873.71c26.1904 0 45.79 -19.2002 45.79 -44.8398s-19.5996 -44.8398 -45.79 -44.8398c-26.2998 0 -46.0098 19.3096 -46.0098 44.8398s19.71 44.8398 46.0098 44.8398zM268.68 871.729c25.2803 0 43.5303 -17.9902 43.5303 -42.75
c0 -24.8701 -18.3701 -42.9805 -43.5303 -42.9805h-33.2998v85.7305h33.2998zM346.609 819.989l-0.00976562 -15.2412h33.25v-18.75h-53.5703v85.7305h52.25v-18.6299h-31.9199v-14.8896h28.7402v-18.2197h-28.7402zM467.619 871.729h20.4502l13.0898 -85.7305h-20.6904
l-7.84961 53.4902l-24.6201 -53.7305h-5.0498l-24.6201 53.7305l-7.83984 -53.4902h-20.7002l13.21 85.7305h20.4502l22.0303 -50.2998zM555.02 803.108c14.3496 0 25.1494 11.04 25.1494 25.7598s-10.7998 25.7598 -25.1494 25.7598s-25.3799 -11.1602 -25.3799 -25.7598
s11.0303 -25.7598 25.3799 -25.7598zM268.14 804.828c13.7598 0 23.2295 10.0605 23.2295 24.1602c0 14.21 -9.46973 23.9102 -23.2295 23.9102h-12.4199v-48.0703h12.4199zM416.25 -10.5107c-210.5 0 -361 155 -361 359.75c0 205.5 150.5 361.25 361 361.25
s361 -155 361 -361.25c0 -205.5 -150.5 -359.75 -361 -359.75zM416.25 21.7393c191 0 327.75 140.5 327.75 327.5c0 187.75 -136.75 329 -327.75 329s-327.75 -142.25 -327.75 -329c0 -186 136.75 -327.5 327.75 -327.5z" />
    <glyph glyph-name="P" unicode="P" horiz-adv-x="599" 
d="M343.25 700c124.75 0 219.75 -90 219.75 -210.25c0 -120.75 -94 -211 -219.75 -211h-203v-278.75h-32.75v700h235.75zM342 310.75c107.75 0 187.75 76.5 187.75 179c0 101.75 -80 178.25 -187.75 178.25h-201.75v-357.25h201.75z" />
    <glyph glyph-name="Thorn" unicode="&#xde;" 
d="M187.86 532.52c-50.2402 0 -87.8604 37.6201 -87.8604 89.0801c0 51.4502 37.6201 89.0801 87.8604 89.0801c50.25 0 87.8701 -37.6299 87.8701 -89.0801c0 -51.46 -37.6201 -89.0801 -87.8701 -89.0801zM187.86 687.13c-37.3701 0 -65.29 -27.9102 -65.29 -65.5303
s28.1602 -65.54 65.29 -65.54c37.1396 0 65.2998 27.9199 65.2998 65.54s-27.9199 65.5303 -65.2998 65.5303zM102.91 461.16l0.000976562 22.8193l169.91 27.9102v-23.54l-129.82 -21.4102l125.93 -57.7197v-6.07031l-125.79 -57.7598l129.68 -21.6104v-23.54
l-169.91 28.4004v22.3301l121.69 54.9805zM250.731 201.21v76.46h22.0898v-99.5195h-169.91v96.8496h21.8496v-73.79h50.2402v67.4805h21.3604v-67.4805h54.3701zM187.861 143.689c49.2803 0 84.9609 -36.1699 84.9609 -86.1699v-57.5195h-169.91v57.5195
c0 50 35.6797 86.1699 84.9492 86.1699zM251.212 23.0596l0.000976562 33.7305c0 37.1396 -26.7002 63.3496 -63.3506 63.3496s-63.3506 -26.21 -63.3506 -63.3496v-33.7305h126.7z" />
    <glyph glyph-name="Q" unicode="Q" horiz-adv-x="833" 
d="M786.5 -102l-41 0.000976562l-131.61 145.33c-55.5898 -34.3496 -122.83 -53.8301 -197.64 -53.8301c-210.5 0 -361 155 -361 359.75c0 205.5 150.5 361.25 361 361.25s361 -155 361 -361.25c0 -120.98 -52.1602 -224.2 -138.01 -288.641zM416.25 21.751
c65.9902 0 125.5 16.7695 175.13 46.4297l-191.13 211.07h41l175.69 -194.02c78.9697 58.5898 127.06 153.13 127.06 264.02c0 187.75 -136.75 329 -327.75 329s-327.75 -142.25 -327.75 -329c0 -186 136.75 -327.5 327.75 -327.5z" />
    <glyph glyph-name="R" unicode="R" horiz-adv-x="633" 
d="M574.5 501.25c0 -104.97 -75.75 -183.76 -183.45 -195.88l182.7 -305.37h-37.25l-181.49 303.75h-214.76v-303.75h-32.75v700h254.25c123 0 212.75 -83.25 212.75 -198.75zM140.25 668.5v-333.25h220.25c106.25 0 180.75 70 180.75 166.25
c0 96.75 -75.25 167 -180.75 167h-220.25z" />
    <glyph glyph-name="S" unicode="S" horiz-adv-x="583" 
d="M298.25 -8.25c-147.5 0 -245.75 84.75 -245.75 214h33.25c0 -110.25 84.75 -181.75 212.25 -181.75c116.25 0 197.75 66.5 197.75 164.5c0 111 -98.25 132.25 -203 155.5c-108.75 23.75 -225 49.75 -225 179.5c0 112.25 88.75 184.75 225 184.75
c132 0 218 -77.25 218 -194.75h-32.5c0 99 -74.75 163 -186 163c-115.5 0 -191.75 -59.75 -191.75 -152c0 -106 99 -127.25 202 -149.75c110.75 -24.75 226.75 -51 226.75 -186c0 -119 -96.25 -197 -231 -197z" />
    <glyph glyph-name="Scaron" unicode="&#x160;" horiz-adv-x="583" 
d="M426.01 873.71c26.1904 0 45.7803 -19.1895 45.7803 -44.8398c0 -25.6396 -19.5898 -44.8398 -45.7803 -44.8398c-26.2998 0 -46.0195 19.3203 -46.0195 44.8398c0 25.5303 19.7197 44.8398 46.0195 44.8398zM139.67 871.741c25.2803 0 43.5303 -17.9902 43.5303 -42.75
c0 -24.8701 -18.3701 -42.9805 -43.5303 -42.9805h-33.2998v85.7305h33.2998zM217.6 820.001v-15.2412h33.2402v-18.75h-53.5703v85.7305h52.25v-18.6299h-31.9199v-14.8896h28.7305v-18.2197h-28.7305zM338.609 871.74h20.4502l13.0898 -85.7305h-20.7002l-7.83984 53.4902
l-24.6201 -53.7305h-5.0498l-24.6104 53.7305l-7.84961 -53.4902h-20.7002l13.21 85.7305h20.4502l22.0303 -50.3096zM426.01 803.12c14.3496 0 25.1494 11.0303 25.1494 25.75s-10.7998 25.7598 -25.1494 25.7598s-25.3799 -11.1602 -25.3799 -25.7598
s11.0303 -25.75 25.3799 -25.75zM139.13 804.84c13.7598 0 23.2402 10.0498 23.2402 24.1494c0 14.21 -9.48047 23.9102 -23.2402 23.9102h-12.4102v-48.0596h12.4102zM298.25 -8.25c-147.5 0 -245.75 84.75 -245.75 214h33.25c0 -110.25 84.75 -181.75 212.25 -181.75
c116.25 0 197.75 66.5 197.75 164.5c0 111 -98.25 132.25 -203 155.5c-108.75 23.75 -225 49.75 -225 179.5c0 112.25 88.75 184.75 225 184.75c132 0 218 -77.25 218 -194.75h-32.5c0 99 -74.75 163 -186 163c-115.5 0 -191.75 -59.75 -191.75 -152
c0 -106 99 -127.25 202 -149.75c110.75 -24.75 226.75 -51 226.75 -186c0 -119 -96.25 -197 -231 -197z" />
    <glyph glyph-name="T" unicode="T" horiz-adv-x="533" 
d="M511 700v-31.25h-228.25v-668.75h-32.75v668.75h-228.25v31.25h489.25z" />
    <glyph glyph-name="U" unicode="U" horiz-adv-x="720" 
d="M360 -9c-151.5 0 -262 111.5 -262 267v442h33v-440.25c0 -138.25 95.25 -236.5 229 -236.5c133.5 0 228.75 98.25 228.75 236.5v440.25h33v-442c0 -155.5 -110.5 -267 -261.75 -267z" />
    <glyph glyph-name="Uacute" unicode="&#xda;" horiz-adv-x="720" 
d="M498.76 873.71c26.1904 0 45.7803 -19.1895 45.7803 -44.8398c0 -25.6396 -19.5898 -44.8398 -45.7803 -44.8398c-26.2998 0 -46.0195 19.3203 -46.0195 44.8398c0 25.5303 19.7197 44.8398 46.0195 44.8398zM212.42 871.741c25.2803 0 43.5303 -17.9902 43.5303 -42.75
c0 -24.8701 -18.3701 -42.9805 -43.5303 -42.9805h-33.2998v85.7305h33.2998zM290.35 820.001v-15.2412h33.2402v-18.75h-53.5703v85.7305h52.25v-18.6299h-31.9199v-14.8896h28.7305v-18.2197h-28.7305zM411.359 871.74h20.4502l13.0898 -85.7305h-20.7002
l-7.83984 53.4902l-24.6201 -53.7305h-5.0498l-24.6104 53.7305l-7.84961 -53.4902h-20.7002l13.21 85.7305h20.4502l22.0303 -50.3096zM498.76 803.12c14.3496 0 25.1494 11.0303 25.1494 25.75s-10.7998 25.7598 -25.1494 25.7598s-25.3799 -11.1602 -25.3799 -25.7598
s11.0303 -25.75 25.3799 -25.75zM211.88 804.84c13.7598 0 23.2402 10.0498 23.2402 24.1494c0 14.21 -9.48047 23.9102 -23.2402 23.9102h-12.4102v-48.0596h12.4102zM360 -9c-151.5 0 -262 111.5 -262 267v442h33v-440.25c0 -138.25 95.25 -236.5 229 -236.5
c133.5 0 228.75 98.25 228.75 236.5v440.25h33v-442c0 -155.5 -110.5 -267 -261.75 -267z" />
    <glyph glyph-name="Ucircumflex" unicode="&#xdb;" horiz-adv-x="720" 
d="M498.76 873.71c26.1904 0 45.7803 -19.1895 45.7803 -44.8398c0 -25.6396 -19.5898 -44.8398 -45.7803 -44.8398c-26.2998 0 -46.0195 19.3203 -46.0195 44.8398c0 25.5303 19.7197 44.8398 46.0195 44.8398zM212.42 871.741c25.2803 0 43.5303 -17.9902 43.5303 -42.75
c0 -24.8701 -18.3701 -42.9805 -43.5303 -42.9805h-33.2998v85.7305h33.2998zM290.35 820.001v-15.2412h33.2402v-18.75h-53.5703v85.7305h52.25v-18.6299h-31.9199v-14.8896h28.7305v-18.2197h-28.7305zM411.359 871.74h20.4502l13.0898 -85.7305h-20.7002
l-7.83984 53.4902l-24.6201 -53.7305h-5.0498l-24.6104 53.7305l-7.84961 -53.4902h-20.7002l13.21 85.7305h20.4502l22.0303 -50.3096zM498.76 803.12c14.3496 0 25.1494 11.0303 25.1494 25.75s-10.7998 25.7598 -25.1494 25.7598s-25.3799 -11.1602 -25.3799 -25.7598
s11.0303 -25.75 25.3799 -25.75zM211.88 804.84c13.7598 0 23.2402 10.0498 23.2402 24.1494c0 14.21 -9.48047 23.9102 -23.2402 23.9102h-12.4102v-48.0596h12.4102zM360 -9c-151.5 0 -262 111.5 -262 267v442h33v-440.25c0 -138.25 95.25 -236.5 229 -236.5
c133.5 0 228.75 98.25 228.75 236.5v440.25h33v-442c0 -155.5 -110.5 -267 -261.75 -267z" />
    <glyph glyph-name="Udieresis" unicode="&#xdc;" horiz-adv-x="720" 
d="M498.76 873.71c26.1904 0 45.7803 -19.1895 45.7803 -44.8398c0 -25.6396 -19.5898 -44.8398 -45.7803 -44.8398c-26.2998 0 -46.0195 19.3203 -46.0195 44.8398c0 25.5303 19.7197 44.8398 46.0195 44.8398zM212.42 871.741c25.2803 0 43.5303 -17.9902 43.5303 -42.75
c0 -24.8701 -18.3701 -42.9805 -43.5303 -42.9805h-33.2998v85.7305h33.2998zM290.35 820.001v-15.2412h33.2402v-18.75h-53.5703v85.7305h52.25v-18.6299h-31.9199v-14.8896h28.7305v-18.2197h-28.7305zM411.359 871.74h20.4502l13.0898 -85.7305h-20.7002
l-7.83984 53.4902l-24.6201 -53.7305h-5.0498l-24.6104 53.7305l-7.84961 -53.4902h-20.7002l13.21 85.7305h20.4502l22.0303 -50.3096zM498.76 803.12c14.3496 0 25.1494 11.0303 25.1494 25.75s-10.7998 25.7598 -25.1494 25.7598s-25.3799 -11.1602 -25.3799 -25.7598
s11.0303 -25.75 25.3799 -25.75zM211.88 804.84c13.7598 0 23.2402 10.0498 23.2402 24.1494c0 14.21 -9.48047 23.9102 -23.2402 23.9102h-12.4102v-48.0596h12.4102zM360 -9c-151.5 0 -262 111.5 -262 267v442h33v-440.25c0 -138.25 95.25 -236.5 229 -236.5
c133.5 0 228.75 98.25 228.75 236.5v440.25h33v-442c0 -155.5 -110.5 -267 -261.75 -267z" />
    <glyph glyph-name="Ugrave" unicode="&#xd9;" horiz-adv-x="720" 
d="M498.76 873.71c26.1904 0 45.7803 -19.1895 45.7803 -44.8398c0 -25.6396 -19.5898 -44.8398 -45.7803 -44.8398c-26.2998 0 -46.0195 19.3203 -46.0195 44.8398c0 25.5303 19.7197 44.8398 46.0195 44.8398zM212.42 871.741c25.2803 0 43.5303 -17.9902 43.5303 -42.75
c0 -24.8701 -18.3701 -42.9805 -43.5303 -42.9805h-33.2998v85.7305h33.2998zM290.35 820.001v-15.2412h33.2402v-18.75h-53.5703v85.7305h52.25v-18.6299h-31.9199v-14.8896h28.7305v-18.2197h-28.7305zM411.359 871.74h20.4502l13.0898 -85.7305h-20.7002
l-7.83984 53.4902l-24.6201 -53.7305h-5.0498l-24.6104 53.7305l-7.84961 -53.4902h-20.7002l13.21 85.7305h20.4502l22.0303 -50.3096zM498.76 803.12c14.3496 0 25.1494 11.0303 25.1494 25.75s-10.7998 25.7598 -25.1494 25.7598s-25.3799 -11.1602 -25.3799 -25.7598
s11.0303 -25.75 25.3799 -25.75zM211.88 804.84c13.7598 0 23.2402 10.0498 23.2402 24.1494c0 14.21 -9.48047 23.9102 -23.2402 23.9102h-12.4102v-48.0596h12.4102zM360 -9c-151.5 0 -262 111.5 -262 267v442h33v-440.25c0 -138.25 95.25 -236.5 229 -236.5
c133.5 0 228.75 98.25 228.75 236.5v440.25h33v-442c0 -155.5 -110.5 -267 -261.75 -267z" />
    <glyph glyph-name="Umacron" unicode="&#x16a;" horiz-adv-x="720" 
d="M498.76 873.71c26.1904 0 45.7803 -19.1895 45.7803 -44.8398c0 -25.6396 -19.5898 -44.8398 -45.7803 -44.8398c-26.2998 0 -46.0195 19.3203 -46.0195 44.8398c0 25.5303 19.7197 44.8398 46.0195 44.8398zM212.42 871.741c25.2803 0 43.5303 -17.9902 43.5303 -42.75
c0 -24.8701 -18.3701 -42.9805 -43.5303 -42.9805h-33.2998v85.7305h33.2998zM290.35 820.001v-15.2412h33.2402v-18.75h-53.5703v85.7305h52.25v-18.6299h-31.9199v-14.8896h28.7305v-18.2197h-28.7305zM411.359 871.74h20.4502l13.0898 -85.7305h-20.7002
l-7.83984 53.4902l-24.6201 -53.7305h-5.0498l-24.6104 53.7305l-7.84961 -53.4902h-20.7002l13.21 85.7305h20.4502l22.0303 -50.3096zM498.76 803.12c14.3496 0 25.1494 11.0303 25.1494 25.75s-10.7998 25.7598 -25.1494 25.7598s-25.3799 -11.1602 -25.3799 -25.7598
s11.0303 -25.75 25.3799 -25.75zM211.88 804.84c13.7598 0 23.2402 10.0498 23.2402 24.1494c0 14.21 -9.48047 23.9102 -23.2402 23.9102h-12.4102v-48.0596h12.4102zM360 -9c-151.5 0 -262 111.5 -262 267v442h33v-440.25c0 -138.25 95.25 -236.5 229 -236.5
c133.5 0 228.75 98.25 228.75 236.5v440.25h33v-442c0 -155.5 -110.5 -267 -261.75 -267z" />
    <glyph glyph-name="V" unicode="V" horiz-adv-x="665" 
d="M599 700h35.75l-286.75 -700h-28l-294 700h36l272.51 -649.23z" />
    <glyph glyph-name="W" unicode="W" horiz-adv-x="1014" 
d="M947.25 700h34.7598l-224.5 -700h-27l-223.84 605.64l-220.16 -605.64h-27l-229.5 700h35l208.91 -642.61l223.84 616.36h17l228 -616.48z" />
    <glyph glyph-name="X" unicode="X" horiz-adv-x="579" 
d="M566.75 0h-38.0098l-238.99 339.98l-239 -339.98h-38.25l256.88 365.86l-235.13 334.14h38l217.5 -309.27l217.75 309.27h38l-235.44 -335.15z" />
    <glyph glyph-name="Y" unicode="Y" horiz-adv-x="640" 
d="M606 700l-269.75 -423.48v-276.52h-33.5v275.91l-267 424.09h36.5l247.54 -391.98l249.71 391.98h36.5z" />
    <glyph glyph-name="Yacute" unicode="&#xdd;" horiz-adv-x="640" 
d="M460.01 784.03c-26.2998 0 -46.0195 19.3213 -46.0195 44.8408c0 25.5303 19.7197 44.8398 46.0195 44.8398c26.1904 0 45.7803 -19.1904 45.7803 -44.8408c0 -25.6396 -19.5898 -44.8398 -45.7803 -44.8398zM217.2 828.991
c0 -24.8701 -18.3701 -42.9805 -43.5303 -42.9805h-33.2998v85.7305h33.2998c25.2803 0 43.5303 -17.9902 43.5303 -42.75zM284.84 804.761v-18.751h-53.5703v85.7305h52.25v-18.6299h-31.9199v-14.8896h28.7305v-18.2197h-28.7305v-15.2402h33.2402zM323.33 839.5
l-7.84961 -53.4902h-20.7002l13.21 85.7305h20.4502l22.0303 -50.3096l22.1396 50.3096h20.4502l13.0898 -85.7305h-20.7002l-7.83984 53.4902l-24.6201 -53.7305h-5.0498zM460.011 854.63c-14.3496 0 -25.3799 -11.1602 -25.3799 -25.7598s11.0303 -25.75 25.3799 -25.75
s25.1494 11.0303 25.1494 25.75s-10.7998 25.7598 -25.1494 25.7598zM160.721 804.84h12.4102c13.7598 0 23.2402 10.0498 23.2402 24.1494c0 14.21 -9.48047 23.9102 -23.2402 23.9102h-12.4102v-48.0596zM606.001 700l-269.75 -423.48v-276.52h-33.5v275.91l-267 424.09
h36.5l247.54 -391.98l249.71 391.98h36.5z" />
    <glyph glyph-name="Ydieresis" unicode="&#x178;" horiz-adv-x="640" 
d="M460.01 784.03c-26.2998 0 -46.0195 19.3213 -46.0195 44.8408c0 25.5303 19.7197 44.8398 46.0195 44.8398c26.1904 0 45.7803 -19.1904 45.7803 -44.8408c0 -25.6396 -19.5898 -44.8398 -45.7803 -44.8398zM217.2 828.991
c0 -24.8701 -18.3701 -42.9805 -43.5303 -42.9805h-33.2998v85.7305h33.2998c25.2803 0 43.5303 -17.9902 43.5303 -42.75zM284.84 804.761v-18.751h-53.5703v85.7305h52.25v-18.6299h-31.9199v-14.8896h28.7305v-18.2197h-28.7305v-15.2402h33.2402zM323.33 839.5
l-7.84961 -53.4902h-20.7002l13.21 85.7305h20.4502l22.0303 -50.3096l22.1396 50.3096h20.4502l13.0898 -85.7305h-20.7002l-7.83984 53.4902l-24.6201 -53.7305h-5.0498zM460.011 854.63c-14.3496 0 -25.3799 -11.1602 -25.3799 -25.7598s11.0303 -25.75 25.3799 -25.75
s25.1494 11.0303 25.1494 25.75s-10.7998 25.7598 -25.1494 25.7598zM160.721 804.84h12.4102c13.7598 0 23.2402 10.0498 23.2402 24.1494c0 14.21 -9.48047 23.9102 -23.2402 23.9102h-12.4102v-48.0596zM606.001 700l-269.75 -423.48v-276.52h-33.5v275.91l-267 424.09
h36.5l247.54 -391.98l249.71 391.98h36.5z" />
    <glyph glyph-name="Z" unicode="Z" horiz-adv-x="538" 
d="M75.5703 31.25h443.93v-31.25h-495v8.5l425.83 660.25h-411.33v31.25h463.75v-7.5z" />
    <glyph glyph-name="Zcaron" unicode="&#x17d;" horiz-adv-x="538" 
d="M422.26 784.03c-26.2998 0 -46.0195 19.3213 -46.0195 44.8408c0 25.5303 19.7197 44.8398 46.0195 44.8398c26.1904 0 45.7803 -19.1904 45.7803 -44.8408c0 -25.6396 -19.5898 -44.8398 -45.7803 -44.8398zM179.45 828.991
c0 -24.8701 -18.3701 -42.9805 -43.5303 -42.9805h-33.2998v85.7305h33.2998c25.2803 0 43.5303 -17.9902 43.5303 -42.75zM247.09 804.761v-18.751h-53.5703v85.7305h52.25v-18.6299h-31.9199v-14.8896h28.7305v-18.2197h-28.7305v-15.2402h33.2402zM285.58 839.5
l-7.84961 -53.4902h-20.7002l13.21 85.7305h20.4502l22.0303 -50.3096l22.1396 50.3096h20.4502l13.0898 -85.7305h-20.7002l-7.83984 53.4902l-24.6201 -53.7305h-5.0498zM422.261 854.63c-14.3496 0 -25.3799 -11.1602 -25.3799 -25.7598s11.0303 -25.75 25.3799 -25.75
s25.1494 11.0303 25.1494 25.75s-10.7998 25.7598 -25.1494 25.7598zM122.971 804.84h12.4102c13.7598 0 23.2402 10.0498 23.2402 24.1494c0 14.21 -9.48047 23.9102 -23.2402 23.9102h-12.4102v-48.0596zM75.5713 31.25h443.93v-31.25h-495v8.5l425.83 660.25h-411.33
v31.25h463.75v-7.5z" />
    <glyph glyph-name="a" unicode="a" horiz-adv-x="702" 
d="M576.5 540l27.2402 -0.0107422v-540h-28l-3.54004 140.98c-43.2803 -91.3496 -133.311 -151.479 -246.45 -151.479c-157 0 -275.5 121 -275.5 280.5c0 159.75 118.5 280.5 275.5 280.5c113.24 0 203.34 -60.1104 246.58 -151.62zM327.49 20.7393
c141 0 243.75 105.25 243.75 249.25s-102.75 249.25 -243.75 249.25c-139.5 0 -244.75 -107.75 -244.75 -249.25c0 -142.25 105.25 -249.25 244.75 -249.25z" />
    <glyph glyph-name="aacute" unicode="&#xe1;" horiz-adv-x="702" 
d="M469.18 648.03c-26.2998 0 -46.0098 19.3096 -46.0098 44.8398s19.71 44.8398 46.0098 44.8398c26.1904 0 45.79 -19.2002 45.79 -44.8398s-19.5996 -44.8398 -45.79 -44.8398zM226.37 692.99c0 -24.8701 -18.3701 -42.9902 -43.5303 -42.9902h-33.2998v85.7305h33.2998
c25.2803 0 43.5303 -17.9805 43.5303 -42.7402zM294.01 668.75v-18.7412h-53.5801v85.7305h52.25v-18.6299h-31.9199v-14.8896h28.7402v-18.2197h-28.7402v-15.25h33.25zM332.5 703.499l-7.84961 -53.4902h-20.7002l13.21 85.7305h20.4502l22.0303 -50.2998l22.1396 50.2998
h20.4502l13.0898 -85.7305h-20.6904l-7.84961 53.4902l-24.6201 -53.7305h-5.0498zM469.181 718.629c-14.3496 0 -25.3799 -11.1602 -25.3799 -25.7598s11.0303 -25.7598 25.3799 -25.7598s25.1494 11.04 25.1494 25.7598s-10.7998 25.7598 -25.1494 25.7598z
M169.881 668.839l12.4199 0.000976562c13.7598 0 23.2295 10.0596 23.2295 24.1592c0 14.21 -9.46973 23.9102 -23.2295 23.9102h-12.4199v-48.0703zM576.501 540l27.2402 -0.0107422v-540h-28l-3.54004 140.98c-43.2803 -91.3496 -133.311 -151.479 -246.45 -151.479
c-157 0 -275.5 121 -275.5 280.5c0 159.75 118.5 280.5 275.5 280.5c113.24 0 203.34 -60.1104 246.58 -151.62zM327.491 20.7393c141 0 243.75 105.25 243.75 249.25s-102.75 249.25 -243.75 249.25c-139.5 0 -244.75 -107.75 -244.75 -249.25
c0 -142.25 105.25 -249.25 244.75 -249.25z" />
    <glyph glyph-name="acircumflex" unicode="&#xe2;" horiz-adv-x="702" 
d="M469.18 648.03c-26.2998 0 -46.0098 19.3096 -46.0098 44.8398s19.71 44.8398 46.0098 44.8398c26.1904 0 45.79 -19.2002 45.79 -44.8398s-19.5996 -44.8398 -45.79 -44.8398zM226.37 692.99c0 -24.8701 -18.3701 -42.9902 -43.5303 -42.9902h-33.2998v85.7305h33.2998
c25.2803 0 43.5303 -17.9805 43.5303 -42.7402zM294.01 668.75v-18.7412h-53.5801v85.7305h52.25v-18.6299h-31.9199v-14.8896h28.7402v-18.2197h-28.7402v-15.25h33.25zM332.5 703.499l-7.84961 -53.4902h-20.7002l13.21 85.7305h20.4502l22.0303 -50.2998l22.1396 50.2998
h20.4502l13.0898 -85.7305h-20.6904l-7.84961 53.4902l-24.6201 -53.7305h-5.0498zM469.181 718.629c-14.3496 0 -25.3799 -11.1602 -25.3799 -25.7598s11.0303 -25.7598 25.3799 -25.7598s25.1494 11.04 25.1494 25.7598s-10.7998 25.7598 -25.1494 25.7598z
M169.881 668.839l12.4199 0.000976562c13.7598 0 23.2295 10.0596 23.2295 24.1592c0 14.21 -9.46973 23.9102 -23.2295 23.9102h-12.4199v-48.0703zM576.501 540l27.2402 -0.0107422v-540h-28l-3.54004 140.98c-43.2803 -91.3496 -133.311 -151.479 -246.45 -151.479
c-157 0 -275.5 121 -275.5 280.5c0 159.75 118.5 280.5 275.5 280.5c113.24 0 203.34 -60.1104 246.58 -151.62zM327.491 20.7393c141 0 243.75 105.25 243.75 249.25s-102.75 249.25 -243.75 249.25c-139.5 0 -244.75 -107.75 -244.75 -249.25
c0 -142.25 105.25 -249.25 244.75 -249.25z" />
    <glyph glyph-name="adieresis" unicode="&#xe4;" horiz-adv-x="702" 
d="M469.18 648.03c-26.2998 0 -46.0098 19.3096 -46.0098 44.8398s19.71 44.8398 46.0098 44.8398c26.1904 0 45.79 -19.2002 45.79 -44.8398s-19.5996 -44.8398 -45.79 -44.8398zM226.37 692.99c0 -24.8701 -18.3701 -42.9902 -43.5303 -42.9902h-33.2998v85.7305h33.2998
c25.2803 0 43.5303 -17.9805 43.5303 -42.7402zM294.01 668.75v-18.7412h-53.5801v85.7305h52.25v-18.6299h-31.9199v-14.8896h28.7402v-18.2197h-28.7402v-15.25h33.25zM332.5 703.499l-7.84961 -53.4902h-20.7002l13.21 85.7305h20.4502l22.0303 -50.2998l22.1396 50.2998
h20.4502l13.0898 -85.7305h-20.6904l-7.84961 53.4902l-24.6201 -53.7305h-5.0498zM469.181 718.629c-14.3496 0 -25.3799 -11.1602 -25.3799 -25.7598s11.0303 -25.7598 25.3799 -25.7598s25.1494 11.04 25.1494 25.7598s-10.7998 25.7598 -25.1494 25.7598z
M169.881 668.839l12.4199 0.000976562c13.7598 0 23.2295 10.0596 23.2295 24.1592c0 14.21 -9.46973 23.9102 -23.2295 23.9102h-12.4199v-48.0703zM576.501 540l27.2402 -0.0107422v-540h-28l-3.54004 140.98c-43.2803 -91.3496 -133.311 -151.479 -246.45 -151.479
c-157 0 -275.5 121 -275.5 280.5c0 159.75 118.5 280.5 275.5 280.5c113.24 0 203.34 -60.1104 246.58 -151.62zM327.491 20.7393c141 0 243.75 105.25 243.75 249.25s-102.75 249.25 -243.75 249.25c-139.5 0 -244.75 -107.75 -244.75 -249.25
c0 -142.25 105.25 -249.25 244.75 -249.25z" />
    <glyph glyph-name="agrave" unicode="&#xe0;" horiz-adv-x="702" 
d="M469.18 648.03c-26.2998 0 -46.0098 19.3096 -46.0098 44.8398s19.71 44.8398 46.0098 44.8398c26.1904 0 45.79 -19.2002 45.79 -44.8398s-19.5996 -44.8398 -45.79 -44.8398zM226.37 692.99c0 -24.8701 -18.3701 -42.9902 -43.5303 -42.9902h-33.2998v85.7305h33.2998
c25.2803 0 43.5303 -17.9805 43.5303 -42.7402zM294.01 668.75v-18.7412h-53.5801v85.7305h52.25v-18.6299h-31.9199v-14.8896h28.7402v-18.2197h-28.7402v-15.25h33.25zM332.5 703.499l-7.84961 -53.4902h-20.7002l13.21 85.7305h20.4502l22.0303 -50.2998l22.1396 50.2998
h20.4502l13.0898 -85.7305h-20.6904l-7.84961 53.4902l-24.6201 -53.7305h-5.0498zM469.181 718.629c-14.3496 0 -25.3799 -11.1602 -25.3799 -25.7598s11.0303 -25.7598 25.3799 -25.7598s25.1494 11.04 25.1494 25.7598s-10.7998 25.7598 -25.1494 25.7598z
M169.881 668.839l12.4199 0.000976562c13.7598 0 23.2295 10.0596 23.2295 24.1592c0 14.21 -9.46973 23.9102 -23.2295 23.9102h-12.4199v-48.0703zM576.501 540l27.2402 -0.0107422v-540h-28l-3.54004 140.98c-43.2803 -91.3496 -133.311 -151.479 -246.45 -151.479
c-157 0 -275.5 121 -275.5 280.5c0 159.75 118.5 280.5 275.5 280.5c113.24 0 203.34 -60.1104 246.58 -151.62zM327.491 20.7393c141 0 243.75 105.25 243.75 249.25s-102.75 249.25 -243.75 249.25c-139.5 0 -244.75 -107.75 -244.75 -249.25
c0 -142.25 105.25 -249.25 244.75 -249.25z" />
    <glyph glyph-name="aring" unicode="&#xe5;" horiz-adv-x="702" 
d="M469.18 648.03c-26.2998 0 -46.0098 19.3096 -46.0098 44.8398s19.71 44.8398 46.0098 44.8398c26.1904 0 45.79 -19.2002 45.79 -44.8398s-19.5996 -44.8398 -45.79 -44.8398zM226.37 692.99c0 -24.8701 -18.3701 -42.9902 -43.5303 -42.9902h-33.2998v85.7305h33.2998
c25.2803 0 43.5303 -17.9805 43.5303 -42.7402zM294.01 668.75v-18.7412h-53.5801v85.7305h52.25v-18.6299h-31.9199v-14.8896h28.7402v-18.2197h-28.7402v-15.25h33.25zM332.5 703.499l-7.84961 -53.4902h-20.7002l13.21 85.7305h20.4502l22.0303 -50.2998l22.1396 50.2998
h20.4502l13.0898 -85.7305h-20.6904l-7.84961 53.4902l-24.6201 -53.7305h-5.0498zM469.181 718.629c-14.3496 0 -25.3799 -11.1602 -25.3799 -25.7598s11.0303 -25.7598 25.3799 -25.7598s25.1494 11.04 25.1494 25.7598s-10.7998 25.7598 -25.1494 25.7598z
M169.881 668.839l12.4199 0.000976562c13.7598 0 23.2295 10.0596 23.2295 24.1592c0 14.21 -9.46973 23.9102 -23.2295 23.9102h-12.4199v-48.0703zM576.501 540l27.2402 -0.0107422v-540h-28l-3.54004 140.98c-43.2803 -91.3496 -133.311 -151.479 -246.45 -151.479
c-157 0 -275.5 121 -275.5 280.5c0 159.75 118.5 280.5 275.5 280.5c113.24 0 203.34 -60.1104 246.58 -151.62zM327.491 20.7393c141 0 243.75 105.25 243.75 249.25s-102.75 249.25 -243.75 249.25c-139.5 0 -244.75 -107.75 -244.75 -249.25
c0 -142.25 105.25 -249.25 244.75 -249.25z" />
    <glyph glyph-name="atilde" unicode="&#xe3;" horiz-adv-x="702" 
d="M469.18 648.03c-26.2998 0 -46.0098 19.3096 -46.0098 44.8398s19.71 44.8398 46.0098 44.8398c26.1904 0 45.79 -19.2002 45.79 -44.8398s-19.5996 -44.8398 -45.79 -44.8398zM226.37 692.99c0 -24.8701 -18.3701 -42.9902 -43.5303 -42.9902h-33.2998v85.7305h33.2998
c25.2803 0 43.5303 -17.9805 43.5303 -42.7402zM294.01 668.75v-18.7412h-53.5801v85.7305h52.25v-18.6299h-31.9199v-14.8896h28.7402v-18.2197h-28.7402v-15.25h33.25zM332.5 703.499l-7.84961 -53.4902h-20.7002l13.21 85.7305h20.4502l22.0303 -50.2998l22.1396 50.2998
h20.4502l13.0898 -85.7305h-20.6904l-7.84961 53.4902l-24.6201 -53.7305h-5.0498zM469.181 718.629c-14.3496 0 -25.3799 -11.1602 -25.3799 -25.7598s11.0303 -25.7598 25.3799 -25.7598s25.1494 11.04 25.1494 25.7598s-10.7998 25.7598 -25.1494 25.7598z
M169.881 668.839l12.4199 0.000976562c13.7598 0 23.2295 10.0596 23.2295 24.1592c0 14.21 -9.46973 23.9102 -23.2295 23.9102h-12.4199v-48.0703zM576.501 540l27.2402 -0.0107422v-540h-28l-3.54004 140.98c-43.2803 -91.3496 -133.311 -151.479 -246.45 -151.479
c-157 0 -275.5 121 -275.5 280.5c0 159.75 118.5 280.5 275.5 280.5c113.24 0 203.34 -60.1104 246.58 -151.62zM327.491 20.7393c141 0 243.75 105.25 243.75 249.25s-102.75 249.25 -243.75 249.25c-139.5 0 -244.75 -107.75 -244.75 -249.25
c0 -142.25 105.25 -249.25 244.75 -249.25z" />
    <glyph glyph-name="ae" unicode="&#xe6;" horiz-adv-x="1152" 
d="M1105 273.5c0 -4.5 -0.249023 -9.50098 -0.499023 -14.001h-504.32c4.87988 -137.19 105.22 -238.25 239.319 -238.25c95 0 171.25 49 214.5 132h34c-51 -106 -138 -163.75 -248.5 -163.75c-108.11 0 -197.681 61.1299 -240.541 153.59l-1.95996 -143.59h-25.75
l-1.71973 137.75c-43.71 -89.1504 -132.26 -147.5 -242.779 -147.5c-157.5 0 -276.5 121 -276.5 280.25s118.75 280.25 276.5 280.25c110.56 0 199.13 -58.3896 242.82 -147.6l1.92969 137.85h25.75l1.71973 -144.1c42.8604 92.1104 132.431 153.101 240.53 153.101
c153.5 0 265.5 -119.75 265.5 -276zM326.751 20.999c138.75 0 243.25 110 243.25 249c0 144.25 -102.25 249 -243.25 249c-139.25 0 -244 -107.25 -244 -249c0 -142.5 104.75 -249 244 -249zM839.501 518.999c-130.93 0 -230 -96.6797 -238.86 -229.5h473.16
c-5.17969 136.2 -106.97 229.5 -234.3 229.5z" />
    <glyph glyph-name="b" unicode="b" horiz-adv-x="701" 
d="M375.25 550.5c160.75 0 274.51 -120.75 274.51 -280.5c0 -159.5 -113.75 -280.5 -274.5 -280.5c-109.99 0 -200.9 59.2002 -245.61 149.36l-4.63965 -138.86h-26.75v730.75h32v-328.28c44.9199 89.4902 135.5 148.03 244.99 148.03zM373.51 20.75
c141 0 243.75 105.25 243.75 249.25s-102.75 249.25 -243.75 249.25c-139.5 0 -244.75 -107 -244.75 -249.25c0 -141.25 105.25 -249.25 244.75 -249.25z" />
    <glyph glyph-name="c" unicode="c" horiz-adv-x="619" 
d="M327.5 -10.5c-157 0 -277.25 121 -277.25 280.5c0 161 119.5 280.5 277.25 280.5c119.5 0 213.25 -67.5 251.25 -170h-32.5c-37.75 86.5 -120 138.75 -218.75 138.75c-140 0 -244.75 -107.25 -244.75 -249.25c0 -141.25 105.75 -249.25 244.75 -249.25
c98 0 179.75 51.5 220 140.25h33c-40.25 -105.25 -136 -171.5 -253 -171.5z" />
    <glyph glyph-name="ccedilla" unicode="&#xe7;" horiz-adv-x="619" 
d="M461.93 737.71c26.1904 0 45.79 -19.2002 45.79 -44.8398s-19.5996 -44.8398 -45.79 -44.8398c-26.2998 0 -46.0098 19.3096 -46.0098 44.8398s19.71 44.8398 46.0098 44.8398zM175.59 735.729c25.2803 0 43.5303 -17.9902 43.5303 -42.75
c0 -24.8701 -18.3701 -42.9805 -43.5303 -42.9805h-33.2998v85.7305h33.2998zM253.52 683.989v-15.2412h33.25v-18.75h-53.5801v85.7305h52.25v-18.6299h-31.9199v-14.8896h28.7402v-18.2197h-28.7402zM374.539 735.729h20.4404l13.0898 -85.7305h-20.6904l-7.84961 53.4902
l-24.6201 -53.7305h-5.0498l-24.6104 53.7305l-7.83984 -53.4902h-20.7002l13.21 85.7305h20.4502l22.0303 -50.2998zM461.93 667.108c14.3496 0 25.1494 11.04 25.1494 25.7598s-10.7998 25.7598 -25.1494 25.7598s-25.3799 -11.1602 -25.3799 -25.7598
s11.0303 -25.7598 25.3799 -25.7598zM175.05 668.828c13.7598 0 23.2295 10.0605 23.2295 24.1602c0 14.21 -9.46973 23.9102 -23.2295 23.9102h-12.4199v-48.0703h12.4199zM327.5 -10.5107c-157 0 -277.25 121 -277.25 280.5c0 161 119.5 280.5 277.25 280.5
c119.5 0 213.25 -67.5 251.25 -170h-32.5c-37.75 86.5 -120 138.75 -218.75 138.75c-140 0 -244.75 -107.25 -244.75 -249.25c0 -141.25 105.75 -249.25 244.75 -249.25c98 0 179.75 51.5 220 140.25h33c-40.25 -105.25 -136 -171.5 -253 -171.5z" />
    <glyph glyph-name="d" unicode="d" horiz-adv-x="700" 
d="M569.75 730.75l32.001 0.00976562v-730.75h-26.75l-4.50977 137.64c-44.0098 -89.4805 -133.41 -148.15 -244.99 -148.15c-157.75 0 -275.25 121 -275.25 280.5c0 159.75 117.5 280.5 275.25 280.5c110.96 0 199.979 -57.8896 244.249 -146.529v326.78zM327.251 20.7598
c141 0 244 105.75 244 249.25c0 143.75 -103 249.25 -244 249.25c-139.5 0 -244.5 -106.75 -244.5 -249.25c0 -141.75 105 -249.25 244.5 -249.25z" />
    <glyph glyph-name="eth" unicode="&#xf0;" 
d="M187.86 532.52c-50.2402 0 -87.8604 37.6201 -87.8604 89.0801c0 51.4502 37.6201 89.0801 87.8604 89.0801c50.25 0 87.8701 -37.6299 87.8701 -89.0801c0 -51.46 -37.6201 -89.0801 -87.8701 -89.0801zM187.86 687.13c-37.3701 0 -65.29 -27.9102 -65.29 -65.5303
s28.1602 -65.54 65.29 -65.54c37.1396 0 65.2998 27.9199 65.2998 65.54s-27.9199 65.5303 -65.2998 65.5303zM102.91 461.16l0.000976562 22.8193l169.91 27.9102v-23.54l-129.82 -21.4102l125.93 -57.7197v-6.07031l-125.79 -57.7598l129.68 -21.6104v-23.54
l-169.91 28.4004v22.3301l121.69 54.9805zM250.731 201.21v76.46h22.0898v-99.5195h-169.91v96.8496h21.8496v-73.79h50.2402v67.4805h21.3604v-67.4805h54.3701zM187.861 143.689c49.2803 0 84.9609 -36.1699 84.9609 -86.1699v-57.5195h-169.91v57.5195
c0 50 35.6797 86.1699 84.9492 86.1699zM251.212 23.0596l0.000976562 33.7305c0 37.1396 -26.7002 63.3496 -63.3506 63.3496s-63.3506 -26.21 -63.3506 -63.3496v-33.7305h126.7z" />
    <glyph glyph-name="e" unicode="e" horiz-adv-x="634" 
d="M587.25 273.75c0 -4.25 -0.25 -9.25 -0.5 -13.5h-504.07c4.86035 -138.15 105.431 -239.25 239.07 -239.25c95.25 0 171.25 49.5 214.5 133h34c-51 -106.75 -138 -164.5 -248.5 -164.5c-154 0 -270.75 121 -270.75 281.25c0 158.75 116.75 279.75 270.75 279.75
c155.25 0 265.5 -121 265.5 -276.75zM321.75 519.75c-130.61 0 -229.63 -96.3496 -238.58 -229.25h472.56c-8.24023 136.72 -107.09 229.25 -233.979 229.25z" />
    <glyph glyph-name="eacute" unicode="&#xe9;" horiz-adv-x="634" 
d="M455.93 648.03c-26.2998 0 -46.0098 19.3096 -46.0098 44.8398s19.71 44.8398 46.0098 44.8398c26.1904 0 45.79 -19.2002 45.79 -44.8398s-19.5996 -44.8398 -45.79 -44.8398zM213.12 692.99c0 -24.8701 -18.3701 -42.9902 -43.5303 -42.9902h-33.2998v85.7305h33.2998
c25.2803 0 43.5303 -17.9805 43.5303 -42.7402zM280.76 668.75v-18.7412h-53.5801v85.7305h52.25v-18.6299h-31.9199v-14.8896h28.7402v-18.2197h-28.7402v-15.25h33.25zM319.25 703.499l-7.84961 -53.4902h-20.7002l13.21 85.7305h20.4502l22.0303 -50.2998
l22.1396 50.2998h20.4502l13.0898 -85.7305h-20.6904l-7.84961 53.4902l-24.6201 -53.7305h-5.0498zM455.931 718.629c-14.3496 0 -25.3799 -11.1602 -25.3799 -25.7598s11.0303 -25.7598 25.3799 -25.7598s25.1494 11.04 25.1494 25.7598
s-10.7998 25.7598 -25.1494 25.7598zM156.631 668.839l12.4199 0.000976562c13.7598 0 23.2295 10.0596 23.2295 24.1592c0 14.21 -9.46973 23.9102 -23.2295 23.9102h-12.4199v-48.0703zM587.251 273.75c0 -4.25 -0.25 -9.25 -0.5 -13.5h-504.07
c4.86035 -138.15 105.431 -239.25 239.07 -239.25c95.25 0 171.25 49.5 214.5 133h34c-51 -106.75 -138 -164.5 -248.5 -164.5c-154 0 -270.75 121 -270.75 281.25c0 158.75 116.75 279.75 270.75 279.75c155.25 0 265.5 -121 265.5 -276.75zM321.751 519.75
c-130.61 0 -229.63 -96.3496 -238.58 -229.25h472.56c-8.24023 136.72 -107.09 229.25 -233.979 229.25z" />
    <glyph glyph-name="ecircumflex" unicode="&#xea;" horiz-adv-x="634" 
d="M455.93 648.03c-26.2998 0 -46.0098 19.3096 -46.0098 44.8398s19.71 44.8398 46.0098 44.8398c26.1904 0 45.79 -19.2002 45.79 -44.8398s-19.5996 -44.8398 -45.79 -44.8398zM213.12 692.99c0 -24.8701 -18.3701 -42.9902 -43.5303 -42.9902h-33.2998v85.7305h33.2998
c25.2803 0 43.5303 -17.9805 43.5303 -42.7402zM280.76 668.75v-18.7412h-53.5801v85.7305h52.25v-18.6299h-31.9199v-14.8896h28.7402v-18.2197h-28.7402v-15.25h33.25zM319.25 703.499l-7.84961 -53.4902h-20.7002l13.21 85.7305h20.4502l22.0303 -50.2998
l22.1396 50.2998h20.4502l13.0898 -85.7305h-20.6904l-7.84961 53.4902l-24.6201 -53.7305h-5.0498zM455.931 718.629c-14.3496 0 -25.3799 -11.1602 -25.3799 -25.7598s11.0303 -25.7598 25.3799 -25.7598s25.1494 11.04 25.1494 25.7598
s-10.7998 25.7598 -25.1494 25.7598zM156.631 668.839l12.4199 0.000976562c13.7598 0 23.2295 10.0596 23.2295 24.1592c0 14.21 -9.46973 23.9102 -23.2295 23.9102h-12.4199v-48.0703zM587.251 273.75c0 -4.25 -0.25 -9.25 -0.5 -13.5h-504.07
c4.86035 -138.15 105.431 -239.25 239.07 -239.25c95.25 0 171.25 49.5 214.5 133h34c-51 -106.75 -138 -164.5 -248.5 -164.5c-154 0 -270.75 121 -270.75 281.25c0 158.75 116.75 279.75 270.75 279.75c155.25 0 265.5 -121 265.5 -276.75zM321.751 519.75
c-130.61 0 -229.63 -96.3496 -238.58 -229.25h472.56c-8.24023 136.72 -107.09 229.25 -233.979 229.25z" />
    <glyph glyph-name="edieresis" unicode="&#xeb;" horiz-adv-x="634" 
d="M455.93 648.03c-26.2998 0 -46.0098 19.3096 -46.0098 44.8398s19.71 44.8398 46.0098 44.8398c26.1904 0 45.79 -19.2002 45.79 -44.8398s-19.5996 -44.8398 -45.79 -44.8398zM213.12 692.99c0 -24.8701 -18.3701 -42.9902 -43.5303 -42.9902h-33.2998v85.7305h33.2998
c25.2803 0 43.5303 -17.9805 43.5303 -42.7402zM280.76 668.75v-18.7412h-53.5801v85.7305h52.25v-18.6299h-31.9199v-14.8896h28.7402v-18.2197h-28.7402v-15.25h33.25zM319.25 703.499l-7.84961 -53.4902h-20.7002l13.21 85.7305h20.4502l22.0303 -50.2998
l22.1396 50.2998h20.4502l13.0898 -85.7305h-20.6904l-7.84961 53.4902l-24.6201 -53.7305h-5.0498zM455.931 718.629c-14.3496 0 -25.3799 -11.1602 -25.3799 -25.7598s11.0303 -25.7598 25.3799 -25.7598s25.1494 11.04 25.1494 25.7598
s-10.7998 25.7598 -25.1494 25.7598zM156.631 668.839l12.4199 0.000976562c13.7598 0 23.2295 10.0596 23.2295 24.1592c0 14.21 -9.46973 23.9102 -23.2295 23.9102h-12.4199v-48.0703zM587.251 273.75c0 -4.25 -0.25 -9.25 -0.5 -13.5h-504.07
c4.86035 -138.15 105.431 -239.25 239.07 -239.25c95.25 0 171.25 49.5 214.5 133h34c-51 -106.75 -138 -164.5 -248.5 -164.5c-154 0 -270.75 121 -270.75 281.25c0 158.75 116.75 279.75 270.75 279.75c155.25 0 265.5 -121 265.5 -276.75zM321.751 519.75
c-130.61 0 -229.63 -96.3496 -238.58 -229.25h472.56c-8.24023 136.72 -107.09 229.25 -233.979 229.25z" />
    <glyph glyph-name="edotaccent" unicode="&#x117;" horiz-adv-x="634" 
d="M455.93 648.03c-26.2998 0 -46.0098 19.3096 -46.0098 44.8398s19.71 44.8398 46.0098 44.8398c26.1904 0 45.79 -19.2002 45.79 -44.8398s-19.5996 -44.8398 -45.79 -44.8398zM213.12 692.99c0 -24.8701 -18.3701 -42.9902 -43.5303 -42.9902h-33.2998v85.7305h33.2998
c25.2803 0 43.5303 -17.9805 43.5303 -42.7402zM280.76 668.75v-18.7412h-53.5801v85.7305h52.25v-18.6299h-31.9199v-14.8896h28.7402v-18.2197h-28.7402v-15.25h33.25zM319.25 703.499l-7.84961 -53.4902h-20.7002l13.21 85.7305h20.4502l22.0303 -50.2998
l22.1396 50.2998h20.4502l13.0898 -85.7305h-20.6904l-7.84961 53.4902l-24.6201 -53.7305h-5.0498zM455.931 718.629c-14.3496 0 -25.3799 -11.1602 -25.3799 -25.7598s11.0303 -25.7598 25.3799 -25.7598s25.1494 11.04 25.1494 25.7598
s-10.7998 25.7598 -25.1494 25.7598zM156.631 668.839l12.4199 0.000976562c13.7598 0 23.2295 10.0596 23.2295 24.1592c0 14.21 -9.46973 23.9102 -23.2295 23.9102h-12.4199v-48.0703zM587.251 273.75c0 -4.25 -0.25 -9.25 -0.5 -13.5h-504.07
c4.86035 -138.15 105.431 -239.25 239.07 -239.25c95.25 0 171.25 49.5 214.5 133h34c-51 -106.75 -138 -164.5 -248.5 -164.5c-154 0 -270.75 121 -270.75 281.25c0 158.75 116.75 279.75 270.75 279.75c155.25 0 265.5 -121 265.5 -276.75zM321.751 519.75
c-130.61 0 -229.63 -96.3496 -238.58 -229.25h472.56c-8.24023 136.72 -107.09 229.25 -233.979 229.25z" />
    <glyph glyph-name="egrave" unicode="&#xe8;" horiz-adv-x="634" 
d="M455.93 648.03c-26.2998 0 -46.0098 19.3096 -46.0098 44.8398s19.71 44.8398 46.0098 44.8398c26.1904 0 45.79 -19.2002 45.79 -44.8398s-19.5996 -44.8398 -45.79 -44.8398zM213.12 692.99c0 -24.8701 -18.3701 -42.9902 -43.5303 -42.9902h-33.2998v85.7305h33.2998
c25.2803 0 43.5303 -17.9805 43.5303 -42.7402zM280.76 668.75v-18.7412h-53.5801v85.7305h52.25v-18.6299h-31.9199v-14.8896h28.7402v-18.2197h-28.7402v-15.25h33.25zM319.25 703.499l-7.84961 -53.4902h-20.7002l13.21 85.7305h20.4502l22.0303 -50.2998
l22.1396 50.2998h20.4502l13.0898 -85.7305h-20.6904l-7.84961 53.4902l-24.6201 -53.7305h-5.0498zM455.931 718.629c-14.3496 0 -25.3799 -11.1602 -25.3799 -25.7598s11.0303 -25.7598 25.3799 -25.7598s25.1494 11.04 25.1494 25.7598
s-10.7998 25.7598 -25.1494 25.7598zM156.631 668.839l12.4199 0.000976562c13.7598 0 23.2295 10.0596 23.2295 24.1592c0 14.21 -9.46973 23.9102 -23.2295 23.9102h-12.4199v-48.0703zM587.251 273.75c0 -4.25 -0.25 -9.25 -0.5 -13.5h-504.07
c4.86035 -138.15 105.431 -239.25 239.07 -239.25c95.25 0 171.25 49.5 214.5 133h34c-51 -106.75 -138 -164.5 -248.5 -164.5c-154 0 -270.75 121 -270.75 281.25c0 158.75 116.75 279.75 270.75 279.75c155.25 0 265.5 -121 265.5 -276.75zM321.751 519.75
c-130.61 0 -229.63 -96.3496 -238.58 -229.25h472.56c-8.24023 136.72 -107.09 229.25 -233.979 229.25z" />
    <glyph glyph-name="emacron" unicode="&#x113;" horiz-adv-x="634" 
d="M455.93 648.03c-26.2998 0 -46.0098 19.3096 -46.0098 44.8398s19.71 44.8398 46.0098 44.8398c26.1904 0 45.79 -19.2002 45.79 -44.8398s-19.5996 -44.8398 -45.79 -44.8398zM213.12 692.99c0 -24.8701 -18.3701 -42.9902 -43.5303 -42.9902h-33.2998v85.7305h33.2998
c25.2803 0 43.5303 -17.9805 43.5303 -42.7402zM280.76 668.75v-18.7412h-53.5801v85.7305h52.25v-18.6299h-31.9199v-14.8896h28.7402v-18.2197h-28.7402v-15.25h33.25zM319.25 703.499l-7.84961 -53.4902h-20.7002l13.21 85.7305h20.4502l22.0303 -50.2998
l22.1396 50.2998h20.4502l13.0898 -85.7305h-20.6904l-7.84961 53.4902l-24.6201 -53.7305h-5.0498zM455.931 718.629c-14.3496 0 -25.3799 -11.1602 -25.3799 -25.7598s11.0303 -25.7598 25.3799 -25.7598s25.1494 11.04 25.1494 25.7598
s-10.7998 25.7598 -25.1494 25.7598zM156.631 668.839l12.4199 0.000976562c13.7598 0 23.2295 10.0596 23.2295 24.1592c0 14.21 -9.46973 23.9102 -23.2295 23.9102h-12.4199v-48.0703zM587.251 273.75c0 -4.25 -0.25 -9.25 -0.5 -13.5h-504.07
c4.86035 -138.15 105.431 -239.25 239.07 -239.25c95.25 0 171.25 49.5 214.5 133h34c-51 -106.75 -138 -164.5 -248.5 -164.5c-154 0 -270.75 121 -270.75 281.25c0 158.75 116.75 279.75 270.75 279.75c155.25 0 265.5 -121 265.5 -276.75zM321.751 519.75
c-130.61 0 -229.63 -96.3496 -238.58 -229.25h472.56c-8.24023 136.72 -107.09 229.25 -233.979 229.25z" />
    <glyph glyph-name="f" unicode="f" horiz-adv-x="368" 
d="M355.25 539v-28.25h-192v-510.75h-32v510.75h-117v28.25h117v42.5c0 125.25 47.75 173.5 174.5 173.5h49.25v-27.5h-45c-110.25 0 -147.5 -37 -147.5 -146.5v-42h192.75z" />
    <glyph glyph-name="g" unicode="g" horiz-adv-x="676" 
d="M553.75 540h24.2402v-460.5c0 -174.75 -96.5 -280.75 -255.5 -280.75c-120.5 0 -205.75 61 -239.25 165h32c32 -86.75 108 -135 207.25 -135c138.5 0 224 92.25 224 247.75v82.29c-42.4404 -84.8301 -128.19 -139.54 -232.5 -139.54c-149.25 0 -263 114.5 -263 265.5
c0 150.25 114.5 265.75 263 265.75c105.93 0 193.479 -58.0703 235.109 -146.12zM316.49 50.25c132.75 0 229.75 99.25 229.75 234.5c0 134.75 -97.75 234.75 -229.75 234.75c-132.75 0 -233 -101.75 -233 -234.75c0 -133.5 100.25 -234.5 233 -234.5z" />
    <glyph glyph-name="h" unicode="h" horiz-adv-x="641" 
d="M340.75 550.5c130.25 0 211.75 -89.5 211.75 -231v-319.5h-32v314c0 128.75 -70 206.5 -185.75 206.5c-110.25 0 -204.5 -94.75 -204.5 -206v-314.5h-32v730.75h32v-312.93c37.3398 78.3496 118.53 132.68 210.5 132.68z" />
    <glyph glyph-name="i" unicode="i" horiz-adv-x="229" 
d="M90.75 660v55.75h47v-55.75h-47zM98.25 0v540h32v-540h-32z" />
    <glyph glyph-name="iacute" unicode="&#xed;" horiz-adv-x="229" 
d="M251.18 737.71c26.1797 0 45.7793 -19.1895 45.7793 -44.8398c0 -25.6396 -19.5996 -44.8398 -45.7793 -44.8398c-26.3096 0 -46.0195 19.3203 -46.0195 44.8398c0 25.5303 19.71 44.8398 46.0195 44.8398zM-35.1699 735.741c25.2803 0 43.54 -17.9902 43.54 -42.75
c0 -24.8701 -18.3701 -42.9805 -43.54 -42.9805h-33.29v85.7305h33.29zM42.7598 684.001v-15.2412h33.25v-18.75h-53.5801v85.7305h52.25v-18.6299h-31.9199v-14.8896h28.7402v-18.2197h-28.7402zM163.779 735.74h20.4502l13.0801 -85.7305h-20.6904l-7.84961 53.4902
l-24.6201 -53.7305h-5.04004l-24.6201 53.7305l-7.83984 -53.4902h-20.7002l13.21 85.7305h20.4404l22.04 -50.3096zM251.18 667.12c14.3496 0 25.1396 11.0303 25.1396 25.75s-10.79 25.7598 -25.1396 25.7598s-25.3896 -11.1602 -25.3896 -25.7598
s11.04 -25.75 25.3896 -25.75zM-35.7002 668.84c13.7598 0 23.2295 10.0498 23.2295 24.1494c0 14.21 -9.46973 23.9102 -23.2295 23.9102h-12.4199v-48.0596h12.4199zM98.25 -0v540h32v-540h-32z" />
    <glyph glyph-name="icircumflex" unicode="&#xee;" horiz-adv-x="229" 
d="M251.18 737.71c26.1797 0 45.7793 -19.1895 45.7793 -44.8398c0 -25.6396 -19.5996 -44.8398 -45.7793 -44.8398c-26.3096 0 -46.0195 19.3203 -46.0195 44.8398c0 25.5303 19.71 44.8398 46.0195 44.8398zM-35.1699 735.741c25.2803 0 43.54 -17.9902 43.54 -42.75
c0 -24.8701 -18.3701 -42.9805 -43.54 -42.9805h-33.29v85.7305h33.29zM42.7598 684.001v-15.2412h33.25v-18.75h-53.5801v85.7305h52.25v-18.6299h-31.9199v-14.8896h28.7402v-18.2197h-28.7402zM163.779 735.74h20.4502l13.0801 -85.7305h-20.6904l-7.84961 53.4902
l-24.6201 -53.7305h-5.04004l-24.6201 53.7305l-7.83984 -53.4902h-20.7002l13.21 85.7305h20.4404l22.04 -50.3096zM251.18 667.12c14.3496 0 25.1396 11.0303 25.1396 25.75s-10.79 25.7598 -25.1396 25.7598s-25.3896 -11.1602 -25.3896 -25.7598
s11.04 -25.75 25.3896 -25.75zM-35.7002 668.84c13.7598 0 23.2295 10.0498 23.2295 24.1494c0 14.21 -9.46973 23.9102 -23.2295 23.9102h-12.4199v-48.0596h12.4199zM98.25 -0v540h32v-540h-32z" />
    <glyph glyph-name="idieresis" unicode="&#xef;" horiz-adv-x="229" 
d="M251.18 737.71c26.1797 0 45.7793 -19.1895 45.7793 -44.8398c0 -25.6396 -19.5996 -44.8398 -45.7793 -44.8398c-26.3096 0 -46.0195 19.3203 -46.0195 44.8398c0 25.5303 19.71 44.8398 46.0195 44.8398zM-35.1699 735.741c25.2803 0 43.54 -17.9902 43.54 -42.75
c0 -24.8701 -18.3701 -42.9805 -43.54 -42.9805h-33.29v85.7305h33.29zM42.7598 684.001v-15.2412h33.25v-18.75h-53.5801v85.7305h52.25v-18.6299h-31.9199v-14.8896h28.7402v-18.2197h-28.7402zM163.779 735.74h20.4502l13.0801 -85.7305h-20.6904l-7.84961 53.4902
l-24.6201 -53.7305h-5.04004l-24.6201 53.7305l-7.83984 -53.4902h-20.7002l13.21 85.7305h20.4404l22.04 -50.3096zM251.18 667.12c14.3496 0 25.1396 11.0303 25.1396 25.75s-10.79 25.7598 -25.1396 25.7598s-25.3896 -11.1602 -25.3896 -25.7598
s11.04 -25.75 25.3896 -25.75zM-35.7002 668.84c13.7598 0 23.2295 10.0498 23.2295 24.1494c0 14.21 -9.46973 23.9102 -23.2295 23.9102h-12.4199v-48.0596h12.4199zM98.25 -0v540h32v-540h-32z" />
    <glyph glyph-name="igrave" unicode="&#xec;" horiz-adv-x="229" 
d="M251.18 737.71c26.1797 0 45.7793 -19.1895 45.7793 -44.8398c0 -25.6396 -19.5996 -44.8398 -45.7793 -44.8398c-26.3096 0 -46.0195 19.3203 -46.0195 44.8398c0 25.5303 19.71 44.8398 46.0195 44.8398zM-35.1699 735.741c25.2803 0 43.54 -17.9902 43.54 -42.75
c0 -24.8701 -18.3701 -42.9805 -43.54 -42.9805h-33.29v85.7305h33.29zM42.7598 684.001v-15.2412h33.25v-18.75h-53.5801v85.7305h52.25v-18.6299h-31.9199v-14.8896h28.7402v-18.2197h-28.7402zM163.779 735.74h20.4502l13.0801 -85.7305h-20.6904l-7.84961 53.4902
l-24.6201 -53.7305h-5.04004l-24.6201 53.7305l-7.83984 -53.4902h-20.7002l13.21 85.7305h20.4404l22.04 -50.3096zM251.18 667.12c14.3496 0 25.1396 11.0303 25.1396 25.75s-10.79 25.7598 -25.1396 25.7598s-25.3896 -11.1602 -25.3896 -25.7598
s11.04 -25.75 25.3896 -25.75zM-35.7002 668.84c13.7598 0 23.2295 10.0498 23.2295 24.1494c0 14.21 -9.46973 23.9102 -23.2295 23.9102h-12.4199v-48.0596h12.4199zM98.25 -0v540h32v-540h-32z" />
    <glyph glyph-name="j" unicode="j" horiz-adv-x="241" 
d="M103 660v55.75h47v-55.75h-47zM-41.25 -190.75v30h19c83.5 0 132.5 49.25 132.5 132v568.75h32v-570.5c0 -98.5 -62.5 -160.25 -161.25 -160.25h-22.25z" />
    <glyph glyph-name="k" unicode="k" horiz-adv-x="510" 
d="M464.5 0l-230.71 266.75h-101.04v-266.75h-32v730.75h32v-433.75h101.52l210.98 243h40l-223.76 -258.28l243.76 -281.72h-40.75z" />
    <glyph glyph-name="l" unicode="l" horiz-adv-x="229" 
d="M98.25 0v730.75h32v-730.75h-32z" />
    <glyph glyph-name="m" unicode="m" horiz-adv-x="956" 
d="M685.75 550.5c109 0 181.249 -84.501 181.249 -209.751v-340.75h-31.25l-0.75 333.5c0 113 -61 187 -154 187c-107.25 0 -181.75 -83.25 -182.5 -204.75v-315.75h-31.5v333.5c0 114.5 -60.25 187 -154.25 187c-107.25 0 -181.75 -83.25 -182.5 -204.75v-315.75h-32v540
h25.5l5.03027 -110.02c33.8604 74.8203 103.091 120.521 189.221 120.521c86.3896 0 149.64 -53.4102 171.83 -138.28c30.4102 85.2803 103.37 138.28 195.92 138.28z" />
    <glyph glyph-name="n" unicode="n" horiz-adv-x="641" 
d="M340.75 550.5c130.25 0 211.75 -91.751 211.75 -231.001v-319.5h-32v314c0 128.75 -70 206.5 -185.75 206.5c-110.25 0 -204.5 -94.75 -204.5 -206v-314.5h-32v540h25.25l5.66016 -124.51c36.8301 79.6104 118.71 135.011 211.59 135.011z" />
    <glyph glyph-name="ntilde" unicode="&#xf1;" horiz-adv-x="641" 
d="M461.43 648.03c-26.3096 0 -46.0195 19.3213 -46.0195 44.8408c0 25.5303 19.71 44.8398 46.0195 44.8398c26.1797 0 45.7793 -19.1904 45.7793 -44.8408c0 -25.6396 -19.5996 -44.8398 -45.7793 -44.8398zM218.62 692.991c0 -24.8701 -18.3701 -42.9805 -43.54 -42.9805
h-33.29v85.7305h33.29c25.2803 0 43.54 -17.9902 43.54 -42.75zM286.26 668.761v-18.751h-53.5801v85.7305h52.25v-18.6299h-31.9199v-14.8896h28.7402v-18.2197h-28.7402v-15.2402h33.25zM324.74 703.5l-7.83984 -53.4902h-20.7002l13.21 85.7305h20.4404l22.04 -50.3096
l22.1396 50.3096h20.4502l13.0801 -85.7305h-20.6904l-7.84961 53.4902l-24.6201 -53.7305h-5.04004zM461.431 718.63c-14.3496 0 -25.3896 -11.1602 -25.3896 -25.7598s11.04 -25.75 25.3896 -25.75s25.1396 11.0303 25.1396 25.75s-10.79 25.7598 -25.1396 25.7598z
M162.131 668.84h12.4199c13.7598 0 23.2295 10.0498 23.2295 24.1494c0 14.21 -9.46973 23.9102 -23.2295 23.9102h-12.4199v-48.0596zM340.751 550.5c130.25 0 211.75 -91.751 211.75 -231.001v-319.5h-32v314c0 128.75 -70 206.5 -185.75 206.5
c-110.25 0 -204.5 -94.75 -204.5 -206v-314.5h-32v540h25.25l5.66016 -124.51c36.8301 79.6104 118.71 135.011 211.59 135.011z" />
    <glyph glyph-name="o" unicode="o" horiz-adv-x="663" 
d="M331.25 -10.5c-160.25 0 -281 120 -281 280.5c0 161.5 120.75 280.5 281 280.5c161 0 281 -120 281 -280.5s-120 -280.5 -281 -280.5zM331.25 20.75c142.75 0 248.5 106.5 248.5 249.25s-105.75 249.25 -248.5 249.25s-248.5 -105.75 -248.5 -249.25
c0 -142.75 106.5 -249.25 248.5 -249.25z" />
    <glyph glyph-name="oacute" unicode="&#xf3;" horiz-adv-x="663" 
d="M468.18 737.71c26.1797 0 45.7793 -19.1895 45.7793 -44.8398c0 -25.6396 -19.5996 -44.8398 -45.7793 -44.8398c-26.3096 0 -46.0195 19.3203 -46.0195 44.8398c0 25.5303 19.71 44.8398 46.0195 44.8398zM181.83 735.741c25.2803 0 43.54 -17.9902 43.54 -42.75
c0 -24.8701 -18.3701 -42.9805 -43.54 -42.9805h-33.29v85.7305h33.29zM259.76 684.001v-15.2412h33.25v-18.75h-53.5801v85.7305h52.25v-18.6299h-31.9199v-14.8896h28.7402v-18.2197h-28.7402zM380.779 735.74h20.4502l13.0801 -85.7305h-20.6904l-7.84961 53.4902
l-24.6201 -53.7305h-5.04004l-24.6201 53.7305l-7.83984 -53.4902h-20.7002l13.21 85.7305h20.4404l22.04 -50.3096zM468.18 667.12c14.3496 0 25.1396 11.0303 25.1396 25.75s-10.79 25.7598 -25.1396 25.7598s-25.3896 -11.1602 -25.3896 -25.7598
s11.04 -25.75 25.3896 -25.75zM181.3 668.84c13.7598 0 23.2295 10.0498 23.2295 24.1494c0 14.21 -9.46973 23.9102 -23.2295 23.9102h-12.4199v-48.0596h12.4199zM331.25 -10.5c-160.25 0 -281 120 -281 280.5c0 161.5 120.75 280.5 281 280.5c161 0 281 -120 281 -280.5
s-120 -280.5 -281 -280.5zM331.25 20.75c142.75 0 248.5 106.5 248.5 249.25s-105.75 249.25 -248.5 249.25s-248.5 -105.75 -248.5 -249.25c0 -142.75 106.5 -249.25 248.5 -249.25z" />
    <glyph glyph-name="ocircumflex" unicode="&#xf4;" horiz-adv-x="663" 
d="M468.18 737.71c26.1797 0 45.7793 -19.1895 45.7793 -44.8398c0 -25.6396 -19.5996 -44.8398 -45.7793 -44.8398c-26.3096 0 -46.0195 19.3203 -46.0195 44.8398c0 25.5303 19.71 44.8398 46.0195 44.8398zM181.83 735.741c25.2803 0 43.54 -17.9902 43.54 -42.75
c0 -24.8701 -18.3701 -42.9805 -43.54 -42.9805h-33.29v85.7305h33.29zM259.76 684.001v-15.2412h33.25v-18.75h-53.5801v85.7305h52.25v-18.6299h-31.9199v-14.8896h28.7402v-18.2197h-28.7402zM380.779 735.74h20.4502l13.0801 -85.7305h-20.6904l-7.84961 53.4902
l-24.6201 -53.7305h-5.04004l-24.6201 53.7305l-7.83984 -53.4902h-20.7002l13.21 85.7305h20.4404l22.04 -50.3096zM468.18 667.12c14.3496 0 25.1396 11.0303 25.1396 25.75s-10.79 25.7598 -25.1396 25.7598s-25.3896 -11.1602 -25.3896 -25.7598
s11.04 -25.75 25.3896 -25.75zM181.3 668.84c13.7598 0 23.2295 10.0498 23.2295 24.1494c0 14.21 -9.46973 23.9102 -23.2295 23.9102h-12.4199v-48.0596h12.4199zM331.25 -10.5c-160.25 0 -281 120 -281 280.5c0 161.5 120.75 280.5 281 280.5c161 0 281 -120 281 -280.5
s-120 -280.5 -281 -280.5zM331.25 20.75c142.75 0 248.5 106.5 248.5 249.25s-105.75 249.25 -248.5 249.25s-248.5 -105.75 -248.5 -249.25c0 -142.75 106.5 -249.25 248.5 -249.25z" />
    <glyph glyph-name="odieresis" unicode="&#xf6;" horiz-adv-x="663" 
d="M468.18 737.71c26.1797 0 45.7793 -19.1895 45.7793 -44.8398c0 -25.6396 -19.5996 -44.8398 -45.7793 -44.8398c-26.3096 0 -46.0195 19.3203 -46.0195 44.8398c0 25.5303 19.71 44.8398 46.0195 44.8398zM181.83 735.741c25.2803 0 43.54 -17.9902 43.54 -42.75
c0 -24.8701 -18.3701 -42.9805 -43.54 -42.9805h-33.29v85.7305h33.29zM259.76 684.001v-15.2412h33.25v-18.75h-53.5801v85.7305h52.25v-18.6299h-31.9199v-14.8896h28.7402v-18.2197h-28.7402zM380.779 735.74h20.4502l13.0801 -85.7305h-20.6904l-7.84961 53.4902
l-24.6201 -53.7305h-5.04004l-24.6201 53.7305l-7.83984 -53.4902h-20.7002l13.21 85.7305h20.4404l22.04 -50.3096zM468.18 667.12c14.3496 0 25.1396 11.0303 25.1396 25.75s-10.79 25.7598 -25.1396 25.7598s-25.3896 -11.1602 -25.3896 -25.7598
s11.04 -25.75 25.3896 -25.75zM181.3 668.84c13.7598 0 23.2295 10.0498 23.2295 24.1494c0 14.21 -9.46973 23.9102 -23.2295 23.9102h-12.4199v-48.0596h12.4199zM331.25 -10.5c-160.25 0 -281 120 -281 280.5c0 161.5 120.75 280.5 281 280.5c161 0 281 -120 281 -280.5
s-120 -280.5 -281 -280.5zM331.25 20.75c142.75 0 248.5 106.5 248.5 249.25s-105.75 249.25 -248.5 249.25s-248.5 -105.75 -248.5 -249.25c0 -142.75 106.5 -249.25 248.5 -249.25z" />
    <glyph glyph-name="ograve" unicode="&#xf2;" horiz-adv-x="663" 
d="M468.18 737.71c26.1797 0 45.7793 -19.1895 45.7793 -44.8398c0 -25.6396 -19.5996 -44.8398 -45.7793 -44.8398c-26.3096 0 -46.0195 19.3203 -46.0195 44.8398c0 25.5303 19.71 44.8398 46.0195 44.8398zM181.83 735.741c25.2803 0 43.54 -17.9902 43.54 -42.75
c0 -24.8701 -18.3701 -42.9805 -43.54 -42.9805h-33.29v85.7305h33.29zM259.76 684.001v-15.2412h33.25v-18.75h-53.5801v85.7305h52.25v-18.6299h-31.9199v-14.8896h28.7402v-18.2197h-28.7402zM380.779 735.74h20.4502l13.0801 -85.7305h-20.6904l-7.84961 53.4902
l-24.6201 -53.7305h-5.04004l-24.6201 53.7305l-7.83984 -53.4902h-20.7002l13.21 85.7305h20.4404l22.04 -50.3096zM468.18 667.12c14.3496 0 25.1396 11.0303 25.1396 25.75s-10.79 25.7598 -25.1396 25.7598s-25.3896 -11.1602 -25.3896 -25.7598
s11.04 -25.75 25.3896 -25.75zM181.3 668.84c13.7598 0 23.2295 10.0498 23.2295 24.1494c0 14.21 -9.46973 23.9102 -23.2295 23.9102h-12.4199v-48.0596h12.4199zM331.25 -10.5c-160.25 0 -281 120 -281 280.5c0 161.5 120.75 280.5 281 280.5c161 0 281 -120 281 -280.5
s-120 -280.5 -281 -280.5zM331.25 20.75c142.75 0 248.5 106.5 248.5 249.25s-105.75 249.25 -248.5 249.25s-248.5 -105.75 -248.5 -249.25c0 -142.75 106.5 -249.25 248.5 -249.25z" />
    <glyph glyph-name="oslash" unicode="&#xf8;" horiz-adv-x="663" 
d="M468.18 737.71c26.1797 0 45.7793 -19.1895 45.7793 -44.8398c0 -25.6396 -19.5996 -44.8398 -45.7793 -44.8398c-26.3096 0 -46.0195 19.3203 -46.0195 44.8398c0 25.5303 19.71 44.8398 46.0195 44.8398zM181.83 735.741c25.2803 0 43.54 -17.9902 43.54 -42.75
c0 -24.8701 -18.3701 -42.9805 -43.54 -42.9805h-33.29v85.7305h33.29zM259.76 684.001v-15.2412h33.25v-18.75h-53.5801v85.7305h52.25v-18.6299h-31.9199v-14.8896h28.7402v-18.2197h-28.7402zM380.779 735.74h20.4502l13.0801 -85.7305h-20.6904l-7.84961 53.4902
l-24.6201 -53.7305h-5.04004l-24.6201 53.7305l-7.83984 -53.4902h-20.7002l13.21 85.7305h20.4404l22.04 -50.3096zM468.18 667.12c14.3496 0 25.1396 11.0303 25.1396 25.75s-10.79 25.7598 -25.1396 25.7598s-25.3896 -11.1602 -25.3896 -25.7598
s11.04 -25.75 25.3896 -25.75zM181.3 668.84c13.7598 0 23.2295 10.0498 23.2295 24.1494c0 14.21 -9.46973 23.9102 -23.2295 23.9102h-12.4199v-48.0596h12.4199zM331.25 -10.5c-160.25 0 -281 120 -281 280.5c0 161.5 120.75 280.5 281 280.5c161 0 281 -120 281 -280.5
s-120 -280.5 -281 -280.5zM331.25 20.75c142.75 0 248.5 106.5 248.5 249.25s-105.75 249.25 -248.5 249.25s-248.5 -105.75 -248.5 -249.25c0 -142.75 106.5 -249.25 248.5 -249.25z" />
    <glyph glyph-name="otilde" unicode="&#xf5;" horiz-adv-x="663" 
d="M468.18 737.71c26.1797 0 45.7793 -19.1895 45.7793 -44.8398c0 -25.6396 -19.5996 -44.8398 -45.7793 -44.8398c-26.3096 0 -46.0195 19.3203 -46.0195 44.8398c0 25.5303 19.71 44.8398 46.0195 44.8398zM181.83 735.741c25.2803 0 43.54 -17.9902 43.54 -42.75
c0 -24.8701 -18.3701 -42.9805 -43.54 -42.9805h-33.29v85.7305h33.29zM259.76 684.001v-15.2412h33.25v-18.75h-53.5801v85.7305h52.25v-18.6299h-31.9199v-14.8896h28.7402v-18.2197h-28.7402zM380.779 735.74h20.4502l13.0801 -85.7305h-20.6904l-7.84961 53.4902
l-24.6201 -53.7305h-5.04004l-24.6201 53.7305l-7.83984 -53.4902h-20.7002l13.21 85.7305h20.4404l22.04 -50.3096zM468.18 667.12c14.3496 0 25.1396 11.0303 25.1396 25.75s-10.79 25.7598 -25.1396 25.7598s-25.3896 -11.1602 -25.3896 -25.7598
s11.04 -25.75 25.3896 -25.75zM181.3 668.84c13.7598 0 23.2295 10.0498 23.2295 24.1494c0 14.21 -9.46973 23.9102 -23.2295 23.9102h-12.4199v-48.0596h12.4199zM331.25 -10.5c-160.25 0 -281 120 -281 280.5c0 161.5 120.75 280.5 281 280.5c161 0 281 -120 281 -280.5
s-120 -280.5 -281 -280.5zM331.25 20.75c142.75 0 248.5 106.5 248.5 249.25s-105.75 249.25 -248.5 249.25s-248.5 -105.75 -248.5 -249.25c0 -142.75 106.5 -249.25 248.5 -249.25z" />
    <glyph glyph-name="oe" unicode="&#x153;" 
d="M187.86 532.52c-50.2402 0 -87.8604 37.6201 -87.8604 89.0801c0 51.4502 37.6201 89.0801 87.8604 89.0801c50.25 0 87.8701 -37.6299 87.8701 -89.0801c0 -51.46 -37.6201 -89.0801 -87.8701 -89.0801zM187.86 687.13c-37.3701 0 -65.29 -27.9102 -65.29 -65.5303
s28.1602 -65.54 65.29 -65.54c37.1396 0 65.2998 27.9199 65.2998 65.54s-27.9199 65.5303 -65.2998 65.5303zM102.91 461.16l0.000976562 22.8193l169.91 27.9102v-23.54l-129.82 -21.4102l125.93 -57.7197v-6.07031l-125.79 -57.7598l129.68 -21.6104v-23.54
l-169.91 28.4004v22.3301l121.69 54.9805zM250.731 201.21v76.46h22.0898v-99.5195h-169.91v96.8496h21.8496v-73.79h50.2402v67.4805h21.3604v-67.4805h54.3701zM187.861 143.689c49.2803 0 84.9609 -36.1699 84.9609 -86.1699v-57.5195h-169.91v57.5195
c0 50 35.6797 86.1699 84.9492 86.1699zM251.212 23.0596l0.000976562 33.7305c0 37.1396 -26.7002 63.3496 -63.3506 63.3496s-63.3506 -26.21 -63.3506 -63.3496v-33.7305h126.7z" />
    <glyph glyph-name="p" unicode="p" horiz-adv-x="701" 
d="M375.75 550.5c160.25 0 274.239 -120.75 274.239 -280.5c0 -159.5 -114 -280.5 -274.25 -280.5c-109.95 0 -200.95 59.5303 -245.49 150.13v-330.38h-32v730.75h24.75l6.36035 -141.34c44.21 91.6299 135.7 151.84 246.391 151.84zM373.989 20.75
c141 0 243.75 105.25 243.75 249.25s-102.75 249.25 -243.75 249.25c-139.5 0 -244.75 -107 -244.75 -249.25c0 -141.5 105.25 -249.25 244.75 -249.25z" />
    <glyph glyph-name="thorn" unicode="&#xfe;" 
d="M187.86 532.52c-50.2402 0 -87.8604 37.6201 -87.8604 89.0801c0 51.4502 37.6201 89.0801 87.8604 89.0801c50.25 0 87.8701 -37.6299 87.8701 -89.0801c0 -51.46 -37.6201 -89.0801 -87.8701 -89.0801zM187.86 687.13c-37.3701 0 -65.29 -27.9102 -65.29 -65.5303
s28.1602 -65.54 65.29 -65.54c37.1396 0 65.2998 27.9199 65.2998 65.54s-27.9199 65.5303 -65.2998 65.5303zM102.91 461.16l0.000976562 22.8193l169.91 27.9102v-23.54l-129.82 -21.4102l125.93 -57.7197v-6.07031l-125.79 -57.7598l129.68 -21.6104v-23.54
l-169.91 28.4004v22.3301l121.69 54.9805zM250.731 201.21v76.46h22.0898v-99.5195h-169.91v96.8496h21.8496v-73.79h50.2402v67.4805h21.3604v-67.4805h54.3701zM187.861 143.689c49.2803 0 84.9609 -36.1699 84.9609 -86.1699v-57.5195h-169.91v57.5195
c0 50 35.6797 86.1699 84.9492 86.1699zM251.212 23.0596l0.000976562 33.7305c0 37.1396 -26.7002 63.3496 -63.3506 63.3496s-63.3506 -26.21 -63.3506 -63.3496v-33.7305h126.7z" />
    <glyph glyph-name="q" unicode="q" horiz-adv-x="700" 
d="M577.25 540l24.7402 -0.0107422v-730.75h-32v328.89c-43.8896 -89.7598 -133.31 -148.64 -244.75 -148.64c-157.25 0 -275 121 -275 280.5c0 159.75 117.75 280.5 275 280.5c112.04 0 201.82 -59.3896 245.46 -149.97zM326.99 20.7393c141 0 244 105.5 244 249.25
s-103 249.25 -244 249.25c-139.5 0 -244.5 -106.75 -244.5 -249.25c0 -141.75 105 -249.25 244.5 -249.25z" />
    <glyph glyph-name="r" unicode="r" horiz-adv-x="380" 
d="M320.5 541.5h46.5v-30.75h-48.5c-112.75 0 -188.25 -87.25 -188.25 -206.75v-304h-32v540h25.25l5.20996 -122.33c33.5898 75.79 100.59 123.83 191.79 123.83z" />
    <glyph glyph-name="s" unicode="s" horiz-adv-x="506" 
d="M253.25 -10.5c-121.5 0 -197.25 59.5 -205.75 157.5h31.5c8.5 -80.75 73 -127.25 175 -127.25c103 0 171.25 48.5 171.25 123.25c0 93.5 -88 110 -177 125c-93.5 16 -190 32.75 -190 138.75c0 85.75 77.5 143.75 191.5 143.75c114.75 0 187.75 -57.75 193 -151h-30.75
c-5.25 76.25 -65 121.5 -162.75 121.5c-96.25 0 -159.75 -45.5 -159.75 -113.5c0 -81 78 -94 166 -108.75c94.5 -15.75 201.5 -35 201.5 -154.75c0 -93 -81.5 -154.5 -203.75 -154.5z" />
    <glyph glyph-name="scaron" unicode="&#x161;" horiz-adv-x="506" 
d="M389.18 737.71c26.1904 0 45.79 -19.2002 45.79 -44.8398s-19.5996 -44.8398 -45.79 -44.8398c-26.2998 0 -46.0098 19.3096 -46.0098 44.8398s19.71 44.8398 46.0098 44.8398zM102.84 735.729c25.2803 0 43.5303 -17.9902 43.5303 -42.75
c0 -24.8701 -18.3701 -42.9805 -43.5303 -42.9805h-33.2998v85.7305h33.2998zM180.77 683.989v-15.2412h33.2402v-18.75h-53.5703v85.7305h52.25v-18.6299h-31.9199v-14.8896h28.7402v-18.2197h-28.7402zM301.789 735.729h20.4404l13.0898 -85.7305h-20.6904
l-7.84961 53.4902l-24.6201 -53.7305h-5.0498l-24.6104 53.7305l-7.83984 -53.4902h-20.7002l13.21 85.7305h20.4502l22.0303 -50.2998zM389.18 667.108c14.3496 0 25.1494 11.04 25.1494 25.7598s-10.7998 25.7598 -25.1494 25.7598s-25.3799 -11.1602 -25.3799 -25.7598
s11.0303 -25.7598 25.3799 -25.7598zM102.3 668.828c13.7598 0 23.2295 10.0605 23.2295 24.1602c0 14.21 -9.46973 23.9102 -23.2295 23.9102h-12.4199v-48.0703h12.4199zM253.25 -10.5107c-121.5 0 -197.25 59.5 -205.75 157.5h31.5c8.5 -80.75 73 -127.25 175 -127.25
c103 0 171.25 48.5 171.25 123.25c0 93.5 -88 110 -177 125c-93.5 16 -190 32.75 -190 138.75c0 85.75 77.5 143.75 191.5 143.75c114.75 0 187.75 -57.75 193 -151h-30.75c-5.25 76.25 -65 121.5 -162.75 121.5c-96.25 0 -159.75 -45.5 -159.75 -113.5
c0 -81 78 -94 166 -108.75c94.5 -15.75 201.5 -35 201.5 -154.75c0 -93 -81.5 -154.5 -203.75 -154.5z" />
    <glyph glyph-name="germandbls" unicode="&#xdf;" 
d="M187.86 532.52c-50.2402 0 -87.8604 37.6201 -87.8604 89.0801c0 51.4502 37.6201 89.0801 87.8604 89.0801c50.25 0 87.8701 -37.6299 87.8701 -89.0801c0 -51.46 -37.6201 -89.0801 -87.8701 -89.0801zM187.86 687.13c-37.3701 0 -65.29 -27.9102 -65.29 -65.5303
s28.1602 -65.54 65.29 -65.54c37.1396 0 65.2998 27.9199 65.2998 65.54s-27.9199 65.5303 -65.2998 65.5303zM102.91 461.16l0.000976562 22.8193l169.91 27.9102v-23.54l-129.82 -21.4102l125.93 -57.7197v-6.07031l-125.79 -57.7598l129.68 -21.6104v-23.54
l-169.91 28.4004v22.3301l121.69 54.9805zM250.731 201.21v76.46h22.0898v-99.5195h-169.91v96.8496h21.8496v-73.79h50.2402v67.4805h21.3604v-67.4805h54.3701zM187.861 143.689c49.2803 0 84.9609 -36.1699 84.9609 -86.1699v-57.5195h-169.91v57.5195
c0 50 35.6797 86.1699 84.9492 86.1699zM251.212 23.0596l0.000976562 33.7305c0 37.1396 -26.7002 63.3496 -63.3506 63.3496s-63.3506 -26.21 -63.3506 -63.3496v-33.7305h126.7z" />
    <glyph glyph-name="t" unicode="t" horiz-adv-x="383" 
d="M300 30.25h68v-30.5h-70.75c-100.5 0 -161.75 62 -161.75 164.25v346.75h-124.5v28.25h124.5v159.75h32v-159.75h196v-28.25h-196v-345.5c0 -85.25 48.25 -135 132.5 -135z" />
    <glyph glyph-name="u" unicode="u" horiz-adv-x="631" 
d="M315.25 -10.5c-139.25 0 -227.5 92.75 -227.5 237v313.5h32v-309.75c0 -129.25 75 -209.5 195.5 -209.5c120.75 0 195.5 80.5 195.5 209.5v309.75h32v-313.5c0 -144.25 -88 -237 -227.5 -237z" />
    <glyph glyph-name="uacute" unicode="&#xfa;" horiz-adv-x="631" 
d="M452.18 737.71c26.1797 0 45.7793 -19.1895 45.7793 -44.8398c0 -25.6396 -19.5996 -44.8398 -45.7793 -44.8398c-26.3096 0 -46.0195 19.3203 -46.0195 44.8398c0 25.5303 19.71 44.8398 46.0195 44.8398zM165.83 735.741c25.2803 0 43.54 -17.9902 43.54 -42.75
c0 -24.8701 -18.3701 -42.9805 -43.54 -42.9805h-33.29v85.7305h33.29zM243.76 684.001v-15.2412h33.25v-18.75h-53.5801v85.7305h52.25v-18.6299h-31.9199v-14.8896h28.7402v-18.2197h-28.7402zM364.779 735.74h20.4502l13.0801 -85.7305h-20.6904l-7.84961 53.4902
l-24.6201 -53.7305h-5.04004l-24.6201 53.7305l-7.83984 -53.4902h-20.7002l13.21 85.7305h20.4404l22.04 -50.3096zM452.18 667.12c14.3496 0 25.1396 11.0303 25.1396 25.75s-10.79 25.7598 -25.1396 25.7598s-25.3896 -11.1602 -25.3896 -25.7598
s11.04 -25.75 25.3896 -25.75zM165.3 668.84c13.7598 0 23.2295 10.0498 23.2295 24.1494c0 14.21 -9.46973 23.9102 -23.2295 23.9102h-12.4199v-48.0596h12.4199zM315.25 -10.5c-139.25 0 -227.5 92.75 -227.5 237v313.5h32v-309.75c0 -129.25 75 -209.5 195.5 -209.5
c120.75 0 195.5 80.5 195.5 209.5v309.75h32v-313.5c0 -144.25 -88 -237 -227.5 -237z" />
    <glyph glyph-name="ucircumflex" unicode="&#xfb;" horiz-adv-x="631" 
d="M452.18 737.71c26.1797 0 45.7793 -19.1895 45.7793 -44.8398c0 -25.6396 -19.5996 -44.8398 -45.7793 -44.8398c-26.3096 0 -46.0195 19.3203 -46.0195 44.8398c0 25.5303 19.71 44.8398 46.0195 44.8398zM165.83 735.741c25.2803 0 43.54 -17.9902 43.54 -42.75
c0 -24.8701 -18.3701 -42.9805 -43.54 -42.9805h-33.29v85.7305h33.29zM243.76 684.001v-15.2412h33.25v-18.75h-53.5801v85.7305h52.25v-18.6299h-31.9199v-14.8896h28.7402v-18.2197h-28.7402zM364.779 735.74h20.4502l13.0801 -85.7305h-20.6904l-7.84961 53.4902
l-24.6201 -53.7305h-5.04004l-24.6201 53.7305l-7.83984 -53.4902h-20.7002l13.21 85.7305h20.4404l22.04 -50.3096zM452.18 667.12c14.3496 0 25.1396 11.0303 25.1396 25.75s-10.79 25.7598 -25.1396 25.7598s-25.3896 -11.1602 -25.3896 -25.7598
s11.04 -25.75 25.3896 -25.75zM165.3 668.84c13.7598 0 23.2295 10.0498 23.2295 24.1494c0 14.21 -9.46973 23.9102 -23.2295 23.9102h-12.4199v-48.0596h12.4199zM315.25 -10.5c-139.25 0 -227.5 92.75 -227.5 237v313.5h32v-309.75c0 -129.25 75 -209.5 195.5 -209.5
c120.75 0 195.5 80.5 195.5 209.5v309.75h32v-313.5c0 -144.25 -88 -237 -227.5 -237z" />
    <glyph glyph-name="udieresis" unicode="&#xfc;" horiz-adv-x="631" 
d="M452.18 737.71c26.1797 0 45.7793 -19.1895 45.7793 -44.8398c0 -25.6396 -19.5996 -44.8398 -45.7793 -44.8398c-26.3096 0 -46.0195 19.3203 -46.0195 44.8398c0 25.5303 19.71 44.8398 46.0195 44.8398zM165.83 735.741c25.2803 0 43.54 -17.9902 43.54 -42.75
c0 -24.8701 -18.3701 -42.9805 -43.54 -42.9805h-33.29v85.7305h33.29zM243.76 684.001v-15.2412h33.25v-18.75h-53.5801v85.7305h52.25v-18.6299h-31.9199v-14.8896h28.7402v-18.2197h-28.7402zM364.779 735.74h20.4502l13.0801 -85.7305h-20.6904l-7.84961 53.4902
l-24.6201 -53.7305h-5.04004l-24.6201 53.7305l-7.83984 -53.4902h-20.7002l13.21 85.7305h20.4404l22.04 -50.3096zM452.18 667.12c14.3496 0 25.1396 11.0303 25.1396 25.75s-10.79 25.7598 -25.1396 25.7598s-25.3896 -11.1602 -25.3896 -25.7598
s11.04 -25.75 25.3896 -25.75zM165.3 668.84c13.7598 0 23.2295 10.0498 23.2295 24.1494c0 14.21 -9.46973 23.9102 -23.2295 23.9102h-12.4199v-48.0596h12.4199zM315.25 -10.5c-139.25 0 -227.5 92.75 -227.5 237v313.5h32v-309.75c0 -129.25 75 -209.5 195.5 -209.5
c120.75 0 195.5 80.5 195.5 209.5v309.75h32v-313.5c0 -144.25 -88 -237 -227.5 -237z" />
    <glyph glyph-name="ugrave" unicode="&#xf9;" horiz-adv-x="631" 
d="M452.18 737.71c26.1797 0 45.7793 -19.1895 45.7793 -44.8398c0 -25.6396 -19.5996 -44.8398 -45.7793 -44.8398c-26.3096 0 -46.0195 19.3203 -46.0195 44.8398c0 25.5303 19.71 44.8398 46.0195 44.8398zM165.83 735.741c25.2803 0 43.54 -17.9902 43.54 -42.75
c0 -24.8701 -18.3701 -42.9805 -43.54 -42.9805h-33.29v85.7305h33.29zM243.76 684.001v-15.2412h33.25v-18.75h-53.5801v85.7305h52.25v-18.6299h-31.9199v-14.8896h28.7402v-18.2197h-28.7402zM364.779 735.74h20.4502l13.0801 -85.7305h-20.6904l-7.84961 53.4902
l-24.6201 -53.7305h-5.04004l-24.6201 53.7305l-7.83984 -53.4902h-20.7002l13.21 85.7305h20.4404l22.04 -50.3096zM452.18 667.12c14.3496 0 25.1396 11.0303 25.1396 25.75s-10.79 25.7598 -25.1396 25.7598s-25.3896 -11.1602 -25.3896 -25.7598
s11.04 -25.75 25.3896 -25.75zM165.3 668.84c13.7598 0 23.2295 10.0498 23.2295 24.1494c0 14.21 -9.46973 23.9102 -23.2295 23.9102h-12.4199v-48.0596h12.4199zM315.25 -10.5c-139.25 0 -227.5 92.75 -227.5 237v313.5h32v-309.75c0 -129.25 75 -209.5 195.5 -209.5
c120.75 0 195.5 80.5 195.5 209.5v309.75h32v-313.5c0 -144.25 -88 -237 -227.5 -237z" />
    <glyph glyph-name="uni0123" unicode="&#x123;" horiz-adv-x="676" 
d="M458.68 648.03c-26.2998 0 -46.0098 19.3096 -46.0098 44.8398s19.71 44.8398 46.0098 44.8398c26.1904 0 45.79 -19.2002 45.79 -44.8398s-19.5996 -44.8398 -45.79 -44.8398zM215.87 692.99c0 -24.8701 -18.3701 -42.9902 -43.5303 -42.9902h-33.2998v85.7305h33.2998
c25.2803 0 43.5303 -17.9805 43.5303 -42.7402zM283.51 668.75v-18.7412h-53.5801v85.7305h52.25v-18.6299h-31.9199v-14.8896h28.7402v-18.2197h-28.7402v-15.25h33.25zM322 703.499l-7.84961 -53.4902h-20.7002l13.21 85.7305h20.4502l22.0303 -50.2998l22.1396 50.2998
h20.4502l13.0898 -85.7305h-20.6904l-7.84961 53.4902l-24.6201 -53.7305h-5.0498zM458.681 718.629c-14.3496 0 -25.3799 -11.1602 -25.3799 -25.7598s11.0303 -25.7598 25.3799 -25.7598s25.1494 11.04 25.1494 25.7598s-10.7998 25.7598 -25.1494 25.7598z
M159.381 668.839l12.4199 0.000976562c13.7598 0 23.2295 10.0596 23.2295 24.1592c0 14.21 -9.46973 23.9102 -23.2295 23.9102h-12.4199v-48.0703zM553.751 540h24.2402v-460.5c0 -174.75 -96.5 -280.75 -255.5 -280.75c-120.5 0 -205.75 61 -239.25 165h32
c32 -86.75 108 -135 207.25 -135c138.5 0 224 92.25 224 247.75v82.29c-42.4404 -84.8301 -128.19 -139.54 -232.5 -139.54c-149.25 0 -263 114.5 -263 265.5c0 150.25 114.5 265.75 263 265.75c105.93 0 193.479 -58.0703 235.109 -146.12zM316.491 50.25
c132.75 0 229.75 99.25 229.75 234.5c0 134.75 -97.75 234.75 -229.75 234.75c-132.75 0 -233 -101.75 -233 -234.75c0 -133.5 100.25 -234.5 233 -234.5z" />
    <glyph glyph-name="v" unicode="v" horiz-adv-x="564" 
d="M504 540h33.25l-240.25 -540h-27l-245.5 540h33.75l225.18 -494.47z" />
    <glyph glyph-name="w" unicode="w" horiz-adv-x="848" 
d="M789 540h33l-191.25 -540h-24.75l-184.1 460.48l-182.65 -460.48h-24.75l-185.75 540h33.75l165.93 -483.89l186.32 466.39h14.25l188.26 -467.52z" />
    <glyph glyph-name="x" unicode="x" horiz-adv-x="486" 
d="M474.25 0h-37l-194.19 261.19l-194.31 -261.19h-36.5l211.29 283.26l-190.79 256.74h37l173.5 -233.77l174.25 233.77h36.5l-191.38 -256.06z" />
    <glyph glyph-name="y" unicode="y" horiz-adv-x="573" 
d="M514.25 540h34.25l-275.25 -587.5c-52.25 -112 -99 -143.25 -185 -143.25h-42.25v29.75h40.25c74.25 0 111 22.75 157.75 122.25l32.6396 68.7803l-252.14 509.97h35.5l233.54 -474.13z" />
    <glyph glyph-name="yacute" unicode="&#xfd;" horiz-adv-x="573" 
d="M428.43 648.03c-26.3096 0 -46.0195 19.3213 -46.0195 44.8408c0 25.5303 19.71 44.8398 46.0195 44.8398c26.1797 0 45.7793 -19.1904 45.7793 -44.8408c0 -25.6396 -19.5996 -44.8398 -45.7793 -44.8398zM185.62 692.991c0 -24.8701 -18.3701 -42.9805 -43.54 -42.9805
h-33.29v85.7305h33.29c25.2803 0 43.54 -17.9902 43.54 -42.75zM253.26 668.761v-18.751h-53.5801v85.7305h52.25v-18.6299h-31.9199v-14.8896h28.7402v-18.2197h-28.7402v-15.2402h33.25zM291.74 703.5l-7.83984 -53.4902h-20.7002l13.21 85.7305h20.4404l22.04 -50.3096
l22.1396 50.3096h20.4502l13.0801 -85.7305h-20.6904l-7.84961 53.4902l-24.6201 -53.7305h-5.04004zM428.431 718.63c-14.3496 0 -25.3896 -11.1602 -25.3896 -25.7598s11.04 -25.75 25.3896 -25.75s25.1396 11.0303 25.1396 25.75s-10.79 25.7598 -25.1396 25.7598z
M129.131 668.84h12.4199c13.7598 0 23.2295 10.0498 23.2295 24.1494c0 14.21 -9.46973 23.9102 -23.2295 23.9102h-12.4199v-48.0596zM514.251 540h34.25l-275.25 -587.5c-52.25 -112 -99 -143.25 -185 -143.25h-42.25v29.75h40.25c74.25 0 111 22.75 157.75 122.25
l32.6396 68.7803l-252.14 509.97h35.5l233.54 -474.13z" />
    <glyph glyph-name="ydieresis" unicode="&#xff;" horiz-adv-x="573" 
d="M428.43 648.03c-26.3096 0 -46.0195 19.3213 -46.0195 44.8408c0 25.5303 19.71 44.8398 46.0195 44.8398c26.1797 0 45.7793 -19.1904 45.7793 -44.8408c0 -25.6396 -19.5996 -44.8398 -45.7793 -44.8398zM185.62 692.991c0 -24.8701 -18.3701 -42.9805 -43.54 -42.9805
h-33.29v85.7305h33.29c25.2803 0 43.54 -17.9902 43.54 -42.75zM253.26 668.761v-18.751h-53.5801v85.7305h52.25v-18.6299h-31.9199v-14.8896h28.7402v-18.2197h-28.7402v-15.2402h33.25zM291.74 703.5l-7.83984 -53.4902h-20.7002l13.21 85.7305h20.4404l22.04 -50.3096
l22.1396 50.3096h20.4502l13.0801 -85.7305h-20.6904l-7.84961 53.4902l-24.6201 -53.7305h-5.04004zM428.431 718.63c-14.3496 0 -25.3896 -11.1602 -25.3896 -25.7598s11.04 -25.75 25.3896 -25.75s25.1396 11.0303 25.1396 25.75s-10.79 25.7598 -25.1396 25.7598z
M129.131 668.84h12.4199c13.7598 0 23.2295 10.0498 23.2295 24.1494c0 14.21 -9.46973 23.9102 -23.2295 23.9102h-12.4199v-48.0596zM514.251 540h34.25l-275.25 -587.5c-52.25 -112 -99 -143.25 -185 -143.25h-42.25v29.75h40.25c74.25 0 111 22.75 157.75 122.25
l32.6396 68.7803l-252.14 509.97h35.5l233.54 -474.13z" />
    <glyph glyph-name="z" unicode="z" horiz-adv-x="456" 
d="M76.75 30.5h352.5v-30.5h-403.5v9.25l345.76 500.5h-329.01v30.25h379.75v-9z" />
    <glyph glyph-name="zcaron" unicode="&#x17e;" horiz-adv-x="456" 
d="M377.18 648.03c-26.3096 0 -46.0195 19.3213 -46.0195 44.8408c0 25.5303 19.71 44.8398 46.0195 44.8398c26.1797 0 45.7793 -19.1904 45.7793 -44.8408c0 -25.6396 -19.5996 -44.8398 -45.7793 -44.8398zM134.37 692.991c0 -24.8701 -18.3701 -42.9805 -43.54 -42.9805
h-33.29v85.7305h33.29c25.2803 0 43.54 -17.9902 43.54 -42.75zM202.01 668.761v-18.751h-53.5801v85.7305h52.25v-18.6299h-31.9199v-14.8896h28.7402v-18.2197h-28.7402v-15.2402h33.25zM240.49 703.5l-7.83984 -53.4902h-20.7002l13.21 85.7305h20.4404l22.04 -50.3096
l22.1396 50.3096h20.4502l13.0801 -85.7305h-20.6904l-7.84961 53.4902l-24.6201 -53.7305h-5.04004zM377.181 718.63c-14.3496 0 -25.3896 -11.1602 -25.3896 -25.7598s11.04 -25.75 25.3896 -25.75s25.1396 11.0303 25.1396 25.75s-10.79 25.7598 -25.1396 25.7598z
M77.8809 668.84h12.4199c13.7598 0 23.2295 10.0498 23.2295 24.1494c0 14.21 -9.46973 23.9102 -23.2295 23.9102h-12.4199v-48.0596zM76.751 30.5h352.5v-30.5h-403.5v9.25l345.76 500.5h-329.01v30.25h379.75v-9z" />
    <glyph glyph-name="ordfeminine" unicode="&#xaa;" 
d="M187.86 532.52c-50.2402 0 -87.8604 37.6201 -87.8604 89.0801c0 51.4502 37.6201 89.0801 87.8604 89.0801c50.25 0 87.8701 -37.6299 87.8701 -89.0801c0 -51.46 -37.6201 -89.0801 -87.8701 -89.0801zM187.86 687.13c-37.3701 0 -65.29 -27.9102 -65.29 -65.5303
s28.1602 -65.54 65.29 -65.54c37.1396 0 65.2998 27.9199 65.2998 65.54s-27.9199 65.5303 -65.2998 65.5303zM102.91 461.16l0.000976562 22.8193l169.91 27.9102v-23.54l-129.82 -21.4102l125.93 -57.7197v-6.07031l-125.79 -57.7598l129.68 -21.6104v-23.54
l-169.91 28.4004v22.3301l121.69 54.9805zM250.731 201.21v76.46h22.0898v-99.5195h-169.91v96.8496h21.8496v-73.79h50.2402v67.4805h21.3604v-67.4805h54.3701zM187.861 143.689c49.2803 0 84.9609 -36.1699 84.9609 -86.1699v-57.5195h-169.91v57.5195
c0 50 35.6797 86.1699 84.9492 86.1699zM251.212 23.0596l0.000976562 33.7305c0 37.1396 -26.7002 63.3496 -63.3506 63.3496s-63.3506 -26.21 -63.3506 -63.3496v-33.7305h126.7z" />
    <glyph glyph-name="ordmasculine" unicode="&#xba;" 
d="M187.86 532.52c-50.2402 0 -87.8604 37.6201 -87.8604 89.0801c0 51.4502 37.6201 89.0801 87.8604 89.0801c50.25 0 87.8701 -37.6299 87.8701 -89.0801c0 -51.46 -37.6201 -89.0801 -87.8701 -89.0801zM187.86 687.13c-37.3701 0 -65.29 -27.9102 -65.29 -65.5303
s28.1602 -65.54 65.29 -65.54c37.1396 0 65.2998 27.9199 65.2998 65.54s-27.9199 65.5303 -65.2998 65.5303zM102.91 461.16l0.000976562 22.8193l169.91 27.9102v-23.54l-129.82 -21.4102l125.93 -57.7197v-6.07031l-125.79 -57.7598l129.68 -21.6104v-23.54
l-169.91 28.4004v22.3301l121.69 54.9805zM250.731 201.21v76.46h22.0898v-99.5195h-169.91v96.8496h21.8496v-73.79h50.2402v67.4805h21.3604v-67.4805h54.3701zM187.861 143.689c49.2803 0 84.9609 -36.1699 84.9609 -86.1699v-57.5195h-169.91v57.5195
c0 50 35.6797 86.1699 84.9492 86.1699zM251.212 23.0596l0.000976562 33.7305c0 37.1396 -26.7002 63.3496 -63.3506 63.3496s-63.3506 -26.21 -63.3506 -63.3496v-33.7305h126.7z" />
    <glyph glyph-name="uni0403" unicode="&#x403;" horiz-adv-x="486" 
d="M397.51 784.03c-26.2998 0 -46.0195 19.3213 -46.0195 44.8408c0 25.5303 19.7197 44.8398 46.0195 44.8398c26.1904 0 45.7803 -19.1904 45.7803 -44.8408c0 -25.6396 -19.5898 -44.8398 -45.7803 -44.8398zM154.7 828.991
c0 -24.8701 -18.3701 -42.9805 -43.5303 -42.9805h-33.2998v85.7305h33.2998c25.2803 0 43.5303 -17.9902 43.5303 -42.75zM222.34 804.761v-18.751h-53.5703v85.7305h52.25v-18.6299h-31.9199v-14.8896h28.7305v-18.2197h-28.7305v-15.2402h33.2402zM260.83 839.5
l-7.84961 -53.4902h-20.7002l13.21 85.7305h20.4502l22.0303 -50.3096l22.1396 50.3096h20.4502l13.0898 -85.7305h-20.7002l-7.83984 53.4902l-24.6201 -53.7305h-5.0498zM397.511 854.63c-14.3496 0 -25.3799 -11.1602 -25.3799 -25.7598s11.0303 -25.75 25.3799 -25.75
s25.1494 11.0303 25.1494 25.75s-10.7998 25.7598 -25.1494 25.7598zM98.2207 804.84h12.4102c13.7598 0 23.2402 10.0498 23.2402 24.1494c0 14.21 -9.48047 23.9102 -23.2402 23.9102h-12.4102v-48.0596zM464.501 700v-31.25h-324.25v-668.75h-32.75v700h357z" />
    <glyph glyph-name="zero" unicode="0" horiz-adv-x="613" 
d="M306.75 -10.5c-150.66 0 -245.641 132.25 -245.641 343.06c0 211.65 94.7305 342.811 245.641 342.811c150.66 0 245.38 -131.16 245.38 -342.811c0 -210.81 -94.9697 -343.06 -245.38 -343.06zM306.75 19.75c131.62 0 213.88 119.23 213.88 312.811
c0 193.79 -82 312.56 -213.88 312.56c-132.13 0 -214.14 -118.77 -214.14 -312.56c0 -193.58 82.0195 -312.811 214.14 -312.811z" />
    <glyph glyph-name="one" unicode="1" horiz-adv-x="309" 
d="M23.75 665h178.5v-665h-31v635.5h-147.5v29.5z" />
    <glyph glyph-name="two" unicode="2" horiz-adv-x="506" 
d="M95.04 30.25h374.21v-30.25h-430.25v17.5c327.75 324.57 362.75 384.5 362.75 481.25c0 87.5 -61.5 146.5 -154.25 146.5c-94.25 0 -159.25 -60.75 -159.25 -146.75v-18.25h-31.25v18.25c0 106 80.25 177 190.5 177s185.75 -71.75 185.75 -176.75
c0 -100.93 -36.0498 -167.14 -338.21 -468.5z" />
    <glyph glyph-name="three" unicode="3" horiz-adv-x="515" 
d="M249 405.75c124.25 -1.5 214.25 -92.5 214.25 -206.5c0 -122.5 -93.25 -209.75 -210.75 -209.75c-115.75 0 -201.25 80 -209.5 192.25h31c8 -95.75 79.75 -162 178.5 -162c102.75 0 179.25 77.25 179.25 180.25c0 100.75 -82 178.5 -190 178.5h-55.25v11.75l203.13 246
h-320.38v29.5h369.5v-12.5l-204.87 -247.5h15.1201z" />
    <glyph glyph-name="four" unicode="4" horiz-adv-x="522" 
d="M494 179.75v-28.75h-83.75v-151h-30.75v151h-359v14l247.75 503.75h33l-239.89 -489h318.14v246.5h30.75v-246.5h83.75z" />
    <glyph glyph-name="five" unicode="5" horiz-adv-x="512" 
d="M245.5 407c127.25 0 220.251 -92.5 220.251 -207.75c0 -122.25 -93.25 -209.75 -210.25 -209.75c-116.25 0 -202.25 80.5 -210 192.25h31c7.75 -95.5 80 -162 179 -162c102.25 0 178.75 77 178.75 179.5c0 100.5 -82 178.75 -189.5 178.75h-156l-7.5 8l30.25 279.75
h310.5v-29.5h-284.03l-24.7803 -229.25h132.31z" />
    <glyph glyph-name="six" unicode="6" horiz-adv-x="538" 
d="M281.25 414c124 0 221.75 -88.25 221.75 -210.75c0 -124 -94.75 -213.75 -224.75 -213.75c-129.75 0 -225.25 90.5 -225.25 213.75c0 61 27.5 146.75 73.75 230.5l134.5 240.25h34.25c-135.6 -244.42 -153.96 -276.77 -172.979 -323.89
c38.7695 39.8301 97.4297 63.8896 158.729 63.8896zM278 19.75c111 0 193.5 78 193.5 183.5c0 105.75 -82.5 182.75 -193.5 182.75s-193.5 -77.25 -193.5 -182.75c0 -105.25 82.5 -183.5 193.5 -183.5z" />
    <glyph glyph-name="seven" unicode="7" horiz-adv-x="477" 
d="M24.5 665.75h426.75v-10.5l-268.5 -655.25h-35l262.6 636.25h-385.85v29.5z" />
    <glyph glyph-name="eight" unicode="8" horiz-adv-x="561" 
d="M366.4 359.49c84.0703 -23.7598 137.371 -91.0801 137.371 -179.36c0 -112.95 -90.9004 -190.7 -223.261 -190.7c-132.86 0 -223.011 77 -223.011 190.7c0 87.75 53.29 154.9 137.63 179.36c-66.0898 23.3799 -108.08 80.7598 -108.08 153.08
c0 96.7305 78.3799 162.631 193.45 162.631s193.2 -65.6504 193.2 -162.631c0 -72.7998 -41.9502 -130.53 -107.3 -153.08zM118.062 512.58c0 -86.7598 69.1104 -140.02 162.45 -140.02c93.0498 0 162.2 53.2197 162.2 140.02c0 79.9805 -64.8301 134.631 -162.2 134.631
c-97.6201 0 -162.45 -54.6504 -162.45 -134.631zM280.512 18.1807c115 0 191.77 65.5801 191.77 161.21c0 103.26 -80.9902 165.109 -191.76 165.109c-110.52 0 -191.51 -61.8496 -191.51 -165.109c0 -95.6299 76.75 -161.21 191.5 -161.21z" />
    <glyph glyph-name="nine" unicode="9" horiz-adv-x="537" 
d="M259 675.5c129.5 0 224.75 -90.5 224.75 -213.75c0 -61 -26.75 -147 -73.25 -230.5l-134.5 -238.75h-34.25c135.11 242.17 153.62 274.27 172.91 322.13c-38.4102 -39.5498 -96.7305 -63.6299 -158.66 -63.6299c-126.25 0 -221.5 90.75 -221.5 210.75
c0 124 94.75 213.75 224.5 213.75zM259.25 279.25c110.75 0 193 77.25 193 182.5s-82.25 183.5 -193 183.5s-193.25 -78 -193.25 -183.5s82.5 -182.5 193.25 -182.5z" />
    <glyph glyph-name="asterisk" unicode="*" horiz-adv-x="375" 
d="M325 598.25l-116.94 -38.0596l75.1904 -103.44l-21 -16.5l-74.96 103.79l-77.04 -103.79l-20.5 16.5l76.0996 103.41l-115.85 38.0898l8 24.75l116 -37.9902v121.99h26.75v-121.77l116 37.7695z" />
    <glyph glyph-name="backslash" unicode="\" 
d="M187.86 532.52c-50.2402 0 -87.8604 37.6201 -87.8604 89.0801c0 51.4502 37.6201 89.0801 87.8604 89.0801c50.25 0 87.8701 -37.6299 87.8701 -89.0801c0 -51.46 -37.6201 -89.0801 -87.8701 -89.0801zM187.86 687.13c-37.3701 0 -65.29 -27.9102 -65.29 -65.5303
s28.1602 -65.54 65.29 -65.54c37.1396 0 65.2998 27.9199 65.2998 65.54s-27.9199 65.5303 -65.2998 65.5303zM102.91 461.16l0.000976562 22.8193l169.91 27.9102v-23.54l-129.82 -21.4102l125.93 -57.7197v-6.07031l-125.79 -57.7598l129.68 -21.6104v-23.54
l-169.91 28.4004v22.3301l121.69 54.9805zM250.731 201.21v76.46h22.0898v-99.5195h-169.91v96.8496h21.8496v-73.79h50.2402v67.4805h21.3604v-67.4805h54.3701zM187.861 143.689c49.2803 0 84.9609 -36.1699 84.9609 -86.1699v-57.5195h-169.91v57.5195
c0 50 35.6797 86.1699 84.9492 86.1699zM251.212 23.0596l0.000976562 33.7305c0 37.1396 -26.7002 63.3496 -63.3506 63.3496s-63.3506 -26.21 -63.3506 -63.3496v-33.7305h126.7z" />
    <glyph glyph-name="periodcentered" unicode="&#xb7;" horiz-adv-x="200" 
d="M75.75 273v62.5h48.5v-62.5h-48.5z" />
    <glyph glyph-name="bullet" unicode="&#x2022;" horiz-adv-x="296" 
d="M147.75 239.25c-30.25 0 -53.75 23.5 -53.75 53.75c0 31.25 23.5 53.75 53.75 53.75c31.25 0 53.75 -22.5 53.75 -53.75c0 -30.25 -22.5 -53.75 -53.75 -53.75z" />
    <glyph glyph-name="colon" unicode=":" horiz-adv-x="200" 
d="M75.75 390.5v62.5h48.5v-62.5h-48.5zM75.75 0v62.5h48.5v-62.5h-48.5z" />
    <glyph glyph-name="comma" unicode="," horiz-adv-x="195" 
d="M70.25 -108.25v26.75c24.25 16 32.5 36.25 32.5 81.5h-34.5v61.5h57.25v-57.25c0 -62.5 -15.75 -91 -55.25 -112.5z" />
    <glyph glyph-name="ellipsis" unicode="&#x2026;" horiz-adv-x="432" 
d="M68 0v62.5h48.5v-62.5h-48.5zM191.75 0v62.5h48.5v-62.5h-48.5zM315.5 0v62.5h48.5v-62.5h-48.5z" />
    <glyph glyph-name="exclam" unicode="!" horiz-adv-x="247" 
d="M107.5 170.25v549.75h32.25v-549.75h-32.25zM99.5 0v62.5h48.5v-62.5h-48.5z" />
    <glyph glyph-name="exclamdown" unicode="&#xa1;" 
d="M187.86 532.52c-50.2402 0 -87.8604 37.6201 -87.8604 89.0801c0 51.4502 37.6201 89.0801 87.8604 89.0801c50.25 0 87.8701 -37.6299 87.8701 -89.0801c0 -51.46 -37.6201 -89.0801 -87.8701 -89.0801zM187.86 687.13c-37.3701 0 -65.29 -27.9102 -65.29 -65.5303
s28.1602 -65.54 65.29 -65.54c37.1396 0 65.2998 27.9199 65.2998 65.54s-27.9199 65.5303 -65.2998 65.5303zM102.91 461.16l0.000976562 22.8193l169.91 27.9102v-23.54l-129.82 -21.4102l125.93 -57.7197v-6.07031l-125.79 -57.7598l129.68 -21.6104v-23.54
l-169.91 28.4004v22.3301l121.69 54.9805zM250.731 201.21v76.46h22.0898v-99.5195h-169.91v96.8496h21.8496v-73.79h50.2402v67.4805h21.3604v-67.4805h54.3701zM187.861 143.689c49.2803 0 84.9609 -36.1699 84.9609 -86.1699v-57.5195h-169.91v57.5195
c0 50 35.6797 86.1699 84.9492 86.1699zM251.212 23.0596l0.000976562 33.7305c0 37.1396 -26.7002 63.3496 -63.3506 63.3496s-63.3506 -26.21 -63.3506 -63.3496v-33.7305h126.7z" />
    <glyph glyph-name="numbersign" unicode="#" 
d="M187.86 532.52c-50.2402 0 -87.8604 37.6201 -87.8604 89.0801c0 51.4502 37.6201 89.0801 87.8604 89.0801c50.25 0 87.8701 -37.6299 87.8701 -89.0801c0 -51.46 -37.6201 -89.0801 -87.8701 -89.0801zM187.86 687.13c-37.3701 0 -65.29 -27.9102 -65.29 -65.5303
s28.1602 -65.54 65.29 -65.54c37.1396 0 65.2998 27.9199 65.2998 65.54s-27.9199 65.5303 -65.2998 65.5303zM102.91 461.16l0.000976562 22.8193l169.91 27.9102v-23.54l-129.82 -21.4102l125.93 -57.7197v-6.07031l-125.79 -57.7598l129.68 -21.6104v-23.54
l-169.91 28.4004v22.3301l121.69 54.9805zM250.731 201.21v76.46h22.0898v-99.5195h-169.91v96.8496h21.8496v-73.79h50.2402v67.4805h21.3604v-67.4805h54.3701zM187.861 143.689c49.2803 0 84.9609 -36.1699 84.9609 -86.1699v-57.5195h-169.91v57.5195
c0 50 35.6797 86.1699 84.9492 86.1699zM251.212 23.0596l0.000976562 33.7305c0 37.1396 -26.7002 63.3496 -63.3506 63.3496s-63.3506 -26.21 -63.3506 -63.3496v-33.7305h126.7z" />
    <glyph glyph-name="period" unicode="." horiz-adv-x="185" 
d="M68 0v62.5h48.5v-62.5h-48.5z" />
    <glyph glyph-name="question" unicode="?" horiz-adv-x="492" 
d="M211.75 170.25v22c0 86.75 51.25 131.5 99.25 174.25c51.5 44.5 100.75 87.25 100.75 178c0 99.75 -70 165 -174.25 165c-96.5 0 -167.75 -58.25 -176.25 -149.25h-30.75c8.75 110 95.25 179.75 207 179.75c121 0 205.75 -76.5 205.75 -195.5
c0 -102.75 -55.25 -151.25 -108 -197c-46.5 -41.75 -91.5 -81 -91.5 -155.25v-22h-32zM203.5 0v62.5h48.5v-62.5h-48.5z" />
    <glyph glyph-name="questiondown" unicode="&#xbf;" 
d="M187.86 532.52c-50.2402 0 -87.8604 37.6201 -87.8604 89.0801c0 51.4502 37.6201 89.0801 87.8604 89.0801c50.25 0 87.8701 -37.6299 87.8701 -89.0801c0 -51.46 -37.6201 -89.0801 -87.8701 -89.0801zM187.86 687.13c-37.3701 0 -65.29 -27.9102 -65.29 -65.5303
s28.1602 -65.54 65.29 -65.54c37.1396 0 65.2998 27.9199 65.2998 65.54s-27.9199 65.5303 -65.2998 65.5303zM102.91 461.16l0.000976562 22.8193l169.91 27.9102v-23.54l-129.82 -21.4102l125.93 -57.7197v-6.07031l-125.79 -57.7598l129.68 -21.6104v-23.54
l-169.91 28.4004v22.3301l121.69 54.9805zM250.731 201.21v76.46h22.0898v-99.5195h-169.91v96.8496h21.8496v-73.79h50.2402v67.4805h21.3604v-67.4805h54.3701zM187.861 143.689c49.2803 0 84.9609 -36.1699 84.9609 -86.1699v-57.5195h-169.91v57.5195
c0 50 35.6797 86.1699 84.9492 86.1699zM251.212 23.0596l0.000976562 33.7305c0 37.1396 -26.7002 63.3496 -63.3506 63.3496s-63.3506 -26.21 -63.3506 -63.3496v-33.7305h126.7z" />
    <glyph glyph-name="quotedbl" unicode="&#x22;" horiz-adv-x="296" 
d="M76.5 475.25v226.75h30.5v-226.75h-30.5zM189.25 475.25v226.75h30.5v-226.75h-30.5z" />
    <glyph glyph-name="quotesingle" unicode="'" horiz-adv-x="184" 
d="M76.5 475.25v226.75h30.5v-226.75h-30.5z" />
    <glyph glyph-name="semicolon" unicode=";" horiz-adv-x="220" 
d="M82 390.75v62.5h48.5v-62.5h-48.5zM83.25 -108.25v26.75c24.25 16 32.5 36.25 32.5 81.5h-34.5v61.5h57.25v-57.25c0 -62.5 -15.75 -91 -55.25 -112.5z" />
    <glyph glyph-name="slash" unicode="/" horiz-adv-x="380" 
d="M187.86 532.52c-50.2402 0 -87.8604 37.6201 -87.8604 89.0801c0 51.4502 37.6201 89.0801 87.8604 89.0801c50.25 0 87.8701 -37.6299 87.8701 -89.0801c0 -51.46 -37.6201 -89.0801 -87.8701 -89.0801zM187.86 687.13c-37.3701 0 -65.29 -27.9102 -65.29 -65.5303
s28.1602 -65.54 65.29 -65.54c37.1396 0 65.2998 27.9199 65.2998 65.54s-27.9199 65.5303 -65.2998 65.5303zM102.91 461.16l0.000976562 22.8193l169.91 27.9102v-23.54l-129.82 -21.4102l125.93 -57.7197v-6.07031l-125.79 -57.7598l129.68 -21.6104v-23.54
l-169.91 28.4004v22.3301l121.69 54.9805zM250.731 201.21v76.46h22.0898v-99.5195h-169.91v96.8496h21.8496v-73.79h50.2402v67.4805h21.3604v-67.4805h54.3701zM187.861 143.689c49.2803 0 84.9609 -36.1699 84.9609 -86.1699v-57.5195h-169.91v57.5195
c0 50 35.6797 86.1699 84.9492 86.1699zM251.212 23.0596l0.000976562 33.7305c0 37.1396 -26.7002 63.3496 -63.3506 63.3496s-63.3506 -26.21 -63.3506 -63.3496v-33.7305h126.7z" />
    <glyph glyph-name="underscore" unicode="_" 
d="M187.86 532.52c-50.2402 0 -87.8604 37.6201 -87.8604 89.0801c0 51.4502 37.6201 89.0801 87.8604 89.0801c50.25 0 87.8701 -37.6299 87.8701 -89.0801c0 -51.46 -37.6201 -89.0801 -87.8701 -89.0801zM187.86 687.13c-37.3701 0 -65.29 -27.9102 -65.29 -65.5303
s28.1602 -65.54 65.29 -65.54c37.1396 0 65.2998 27.9199 65.2998 65.54s-27.9199 65.5303 -65.2998 65.5303zM102.91 461.16l0.000976562 22.8193l169.91 27.9102v-23.54l-129.82 -21.4102l125.93 -57.7197v-6.07031l-125.79 -57.7598l129.68 -21.6104v-23.54
l-169.91 28.4004v22.3301l121.69 54.9805zM250.731 201.21v76.46h22.0898v-99.5195h-169.91v96.8496h21.8496v-73.79h50.2402v67.4805h21.3604v-67.4805h54.3701zM187.861 143.689c49.2803 0 84.9609 -36.1699 84.9609 -86.1699v-57.5195h-169.91v57.5195
c0 50 35.6797 86.1699 84.9492 86.1699zM251.212 23.0596l0.000976562 33.7305c0 37.1396 -26.7002 63.3496 -63.3506 63.3496s-63.3506 -26.21 -63.3506 -63.3496v-33.7305h126.7z" />
    <glyph glyph-name="braceleft" unicode="{" horiz-adv-x="333" 
d="M226 -84.5l92.25 0.000976562v-29.25h-100.25c-61.5 0 -108.5 46 -108.5 108.5v258.75c0 38.25 -30.75 69 -70 69h-6.25v28.25h6.25c39.25 0 70 30.75 70 70v254.25c0 61.5 47 107.5 108.5 107.5h97.75v-29.25h-89.75c-49.25 0 -84.75 -35.5 -84.75 -84v-247.25
c0 -39.9199 -23.8896 -73.3799 -55.8193 -85.3604c31.6396 -11.9404 55.8193 -45.1807 55.8193 -84.3906v-252c0 -49 35.5 -84.75 84.75 -84.75z" />
    <glyph glyph-name="braceright" unicode="}" horiz-adv-x="333" 
d="M293.75 350.75l6.25 -0.000976562v-28.25h-6.25c-39.25 0 -70 -30.75 -70 -69v-258.75c0 -62.5 -47 -108.5 -108.5 -108.5h-100.25v29.25h92.25c49.25 0 84.75 35.75 84.75 84.75v252c0 39.21 24.1797 72.4502 55.8096 84.3906
c-31.9297 11.9805 -55.8096 45.4404 -55.8096 85.3604v247.25c0 48.5 -35.5 84 -84.75 84h-89.75v29.25h97.75c61.5 0 108.5 -46 108.5 -107.5v-254.25c0 -39.25 30.75 -70 70 -70z" />
    <glyph glyph-name="bracketleft" unicode="[" horiz-adv-x="324" 
d="M106.75 -118.5v906.75h199.25v-28.5h-168.75v-849.25h170.75v-29h-201.25z" />
    <glyph glyph-name="bracketright" unicode="]" horiz-adv-x="324" 
d="M217.25 -118.5h-201.25v29h170.75v849.25h-168.75v28.5h199.25v-906.75z" />
    <glyph glyph-name="parenleft" unicode="(" horiz-adv-x="260" 
d="M196.25 -119.25c-87.25 125.25 -140.5 283.75 -140.5 458.25c0 174.75 53.25 333.25 139.75 459.5h36.75c-89.25 -125.5 -144.75 -286.75 -144.75 -459.5c0 -171.75 55 -333.75 145.5 -458.25h-36.75z" />
    <glyph glyph-name="parenright" unicode=")" horiz-adv-x="260" 
d="M63.5 -119.25h-36.75c90.5 124.5 145.5 286.5 145.5 458.25c0 172.75 -55.5 334 -144.75 459.5h36.75c86.5 -126.25 139.75 -284.75 139.75 -459.5c0 -174.5 -53.25 -333 -140.5 -458.25z" />
    <glyph glyph-name="emdash" unicode="&#x2014;" horiz-adv-x="894" 
d="M75.29 262.75v31.25h743.35v-31.25h-743.35z" />
    <glyph glyph-name="endash" unicode="&#x2013;" horiz-adv-x="643" 
d="M75.6104 262.75v31.25h491.65v-31.25h-491.65z" />
    <glyph glyph-name="hyphen" unicode="-" horiz-adv-x="462" 
d="M75.5 262.75v31.25h310.5v-31.25h-310.5z" />
    <glyph glyph-name="guillemotleft" unicode="&#xab;" horiz-adv-x="533" 
d="M225.75 61.75l-176.75 200.5v9.5l176.75 200.5h38.5l-180 -205.25l180 -205.25h-38.5zM433 61.75l-176.75 200.5v9.5l176.75 200.5h38.5l-180 -205.25l180 -205.25h-38.5z" />
    <glyph glyph-name="guillemotright" unicode="&#xbb;" horiz-adv-x="533" 
d="M100.25 61.75h-38.5l180 205.25l-180 205.25h38.5l176.75 -200.5v-9.5zM307.5 61.75h-38.5l180 205.25l-180 205.25h38.5l176.75 -200.5v-9.5z" />
    <glyph glyph-name="guilsinglleft" unicode="&#x2039;" horiz-adv-x="326" 
d="M225.75 61.75l-176.75 200.5v9.5l176.75 200.5h38.5l-180 -205.25l180 -205.25h-38.5z" />
    <glyph glyph-name="guilsinglright" unicode="&#x203a;" horiz-adv-x="326" 
d="M100.25 61.75h-38.5l180 205.25l-180 205.25h38.5l176.75 -200.5v-9.5z" />
    <glyph glyph-name="quotedblbase" unicode="&#x201e;" horiz-adv-x="317" 
d="M76.25 -102.25l-6 19.25c23.5 16.75 34 43.75 34 83h-36v61.5h57.25v-58.75c0 -52 -18 -87.25 -49.25 -105zM197.5 -102.25l-6 19.25c23.5 16.75 34 43.75 34 83h-36v61.5h57.25v-58.75c0 -52 -18 -87.25 -49.25 -105z" />
    <glyph glyph-name="quotedblleft" unicode="&#x201c;" horiz-adv-x="312" 
d="M115.75 745.5l6 -19.25c-23.5 -16.75 -34 -43.75 -34 -83h36v-61.5h-57.25v58.75c0 52 18 87.25 49.25 105zM237 745.5l6 -19.25c-23.5 -16.75 -34 -43.75 -34 -83h36v-61.5h-57.25v58.75c0 52 18 87.25 49.25 105z" />
    <glyph glyph-name="quotedblright" unicode="&#x201d;" horiz-adv-x="306" 
d="M76.5 548.5l-6 19.25c23.5 16.75 34 43.75 34 83h-36v61.5h57.25v-58.75c0 -52 -18 -87.25 -49.25 -105zM197.75 548.5l-6 19.25c23.5 16.75 34 43.75 34 83h-36v61.5h57.25v-58.75c0 -52 -18 -87.25 -49.25 -105z" />
    <glyph glyph-name="quoteleft" unicode="&#x2018;" horiz-adv-x="191" 
d="M121.75 748.75v-26.75c-24.25 -16 -32.5 -36.25 -32.5 -81.5h34.5v-61.5h-57.25v57.25c0 62.5 15.75 91 55.25 112.5z" />
    <glyph glyph-name="quoteright" unicode="&#x2019;" horiz-adv-x="185" 
d="M70.5 543.25v26.75c24.25 16 32.5 36.25 32.5 81.5h-34.5v61.5h57.25v-57.25c0 -62.5 -15.75 -91 -55.25 -112.5z" />
    <glyph glyph-name="quotesinglbase" unicode="&#x201a;" horiz-adv-x="195" 
d="M70.25 -108.25v26.75c24.25 16 32.5 36.25 32.5 81.5h-34.5v61.5h57.25v-57.25c0 -62.5 -15.75 -91 -55.25 -112.5z" />
    <glyph glyph-name="space" unicode=" " horiz-adv-x="281" 
 />
    <glyph glyph-name="uni00A0" unicode="&#xa0;" horiz-adv-x="281" 
 />
    <glyph glyph-name="Euro" unicode="&#x20ac;" horiz-adv-x="649" 
d="M468.25 653.5c-147.46 0 -264.07 -90.2471 -302.221 -221.978h391.95l-7 -28.25h-391.79c-4.24023 -21.6201 -6.4502 -44.1797 -6.4502 -67.5c0 -23.9805 2.34961 -47.1309 6.83984 -69.251h355.16l-6.75 -28.25h-341.35c38.9902 -130.92 156.101 -219.5 301.36 -219.5
c38 0 74.25 5.25 108.75 17v-29.5c-35.5 -11.75 -73.25 -17 -111.75 -17c-161.76 0 -291.17 101.83 -331.02 249h-97.9805l6.75 28.25h84.79c-4.13965 22.25 -6.2998 45.3896 -6.2998 69.2393c0 23.3096 2 45.8496 5.83984 67.4893h-88.8398l6.75 28.25h88.2803
c39.3398 150.51 170.97 250.75 332.479 250.75c52.75 0 103 -9.75 148.25 -29l-7 -28.25c-42.25 19.25 -88.5 28.5 -138.75 28.5z" />
    <glyph glyph-name="cent" unicode="&#xa2;" horiz-adv-x="596" 
d="M315 20.25c93.5 0 171.499 50.501 209.749 133.751l31.75 -0.5c-36.8799 -95.5498 -122.16 -158.3 -227.5 -163.41v-89.0898h-27.5v89.0703c-142.17 6.79004 -250.5 120.56 -250.5 267.93c0 148.61 107.44 260.311 250.5 266.94v91.3096h27.5v-91.3301
c107.65 -5.11035 192.761 -69.0205 228.001 -164.421h-31.75c-36.5 84.25 -115.5 134.25 -210.25 134.25c-132.75 0 -232.75 -101.25 -232.75 -236.75c0 -134.5 101 -237.75 232.75 -237.75z" />
    <glyph glyph-name="currency" unicode="&#xa4;" 
d="M187.86 532.52c-50.2402 0 -87.8604 37.6201 -87.8604 89.0801c0 51.4502 37.6201 89.0801 87.8604 89.0801c50.25 0 87.8701 -37.6299 87.8701 -89.0801c0 -51.46 -37.6201 -89.0801 -87.8701 -89.0801zM187.86 687.13c-37.3701 0 -65.29 -27.9102 -65.29 -65.5303
s28.1602 -65.54 65.29 -65.54c37.1396 0 65.2998 27.9199 65.2998 65.54s-27.9199 65.5303 -65.2998 65.5303zM102.91 461.16l0.000976562 22.8193l169.91 27.9102v-23.54l-129.82 -21.4102l125.93 -57.7197v-6.07031l-125.79 -57.7598l129.68 -21.6104v-23.54
l-169.91 28.4004v22.3301l121.69 54.9805zM250.731 201.21v76.46h22.0898v-99.5195h-169.91v96.8496h21.8496v-73.79h50.2402v67.4805h21.3604v-67.4805h54.3701zM187.861 143.689c49.2803 0 84.9609 -36.1699 84.9609 -86.1699v-57.5195h-169.91v57.5195
c0 50 35.6797 86.1699 84.9492 86.1699zM251.212 23.0596l0.000976562 33.7305c0 37.1396 -26.7002 63.3496 -63.3506 63.3496s-63.3506 -26.21 -63.3506 -63.3496v-33.7305h126.7z" />
    <glyph glyph-name="dollar" unicode="$" horiz-adv-x="542" 
d="M499.5 181.75c0 -109.02 -84.2402 -184.53 -208.25 -189.721v-91.0303h-28.25v91.0303c-136.11 5.38965 -221.75 86.9893 -221.75 208.97h32.25c0 -108.75 82 -177.75 204 -177.75c111 0 189.75 64.25 189.75 158.25c0 105.5 -94 127 -194 148.25
c-104.25 22.25 -217.75 46.25 -217.75 173c0 104.99 79.5596 173.34 202.5 178.22v86.0303h29v-86.0996c118.84 -5.59961 195 -79.3193 195 -193.649h-31.75c0 101 -71.75 163 -178.5 163c-110.75 0 -184.25 -57.75 -184.25 -146.5c0 -101.25 95 -120.5 193.75 -142.75
c106.25 -23.25 218.25 -48.5 218.25 -179.25z" />
    <glyph glyph-name="florin" unicode="&#x192;" 
d="M187.86 532.52c-50.2402 0 -87.8604 37.6201 -87.8604 89.0801c0 51.4502 37.6201 89.0801 87.8604 89.0801c50.25 0 87.8701 -37.6299 87.8701 -89.0801c0 -51.46 -37.6201 -89.0801 -87.8701 -89.0801zM187.86 687.13c-37.3701 0 -65.29 -27.9102 -65.29 -65.5303
s28.1602 -65.54 65.29 -65.54c37.1396 0 65.2998 27.9199 65.2998 65.54s-27.9199 65.5303 -65.2998 65.5303zM102.91 461.16l0.000976562 22.8193l169.91 27.9102v-23.54l-129.82 -21.4102l125.93 -57.7197v-6.07031l-125.79 -57.7598l129.68 -21.6104v-23.54
l-169.91 28.4004v22.3301l121.69 54.9805zM250.731 201.21v76.46h22.0898v-99.5195h-169.91v96.8496h21.8496v-73.79h50.2402v67.4805h21.3604v-67.4805h54.3701zM187.861 143.689c49.2803 0 84.9609 -36.1699 84.9609 -86.1699v-57.5195h-169.91v57.5195
c0 50 35.6797 86.1699 84.9492 86.1699zM251.212 23.0596l0.000976562 33.7305c0 37.1396 -26.7002 63.3496 -63.3506 63.3496s-63.3506 -26.21 -63.3506 -63.3496v-33.7305h126.7z" />
    <glyph glyph-name="sterling" unicode="&#xa3;" horiz-adv-x="583" 
d="M504.5 132h29.5v-132h-492.25v25l77.25 3.25977v277.49h-70.75v28.25h70.75v145.75c0 118.25 86.5 203.5 197.75 203.5c110.75 0 195.75 -85 195.75 -195v-3.25h-29.5v2c0 92.75 -73.5 166 -166.25 166c-94.75 0 -166.5 -75 -166.5 -174.5v-144.5h221v-28.25h-221
v-277.25h354.25v103.5z" />
    <glyph glyph-name="yen" unicode="&#xa5;" horiz-adv-x="618" 
d="M324.5 299.56v-27.0596h218v-24h-218v-101.25h218v-23.75h-218v-123.5h-31.75v123.5h-218v23.75h218v101.25h-218v24h218v26.96l-253.5 365.54h34.25l235.06 -337.78l237.69 337.78h34.5z" />
    <glyph glyph-name="plus" unicode="+" horiz-adv-x="511" 
d="M478.25 364.75v-30.25h-206.75v-212.75h-31.5v212.75h-207v30.25h207v208.5h31.5v-208.5h206.75z" />
    <glyph glyph-name="multiply" unicode="&#xd7;" horiz-adv-x="494" 
d="M433.25 515.25l-165.11 -167.82l165.11 -167.93l-21.25 -21l-164.94 167.51l-164.81 -167.51l-21.5 21l165.23 167.93l-165.23 167.82l21.75 21l164.56 -167.38l164.69 167.38z" />
    <glyph glyph-name="divide" unicode="&#xf7;" horiz-adv-x="625" 
d="M312.25 484c-14.75 0 -26.5 11.5 -26.5 26.5c0 14.5 11.75 26.25 26.5 26.25s26.5 -11.75 26.5 -26.25c0 -15 -11.75 -26.5 -26.5 -26.5zM72.25 333v30.25h480v-30.25h-480zM312.25 157.25c-14.75 0 -26.5 11.75 -26.5 26.5s11.75 26.25 26.5 26.25
s26.5 -11.5 26.5 -26.25s-11.75 -26.5 -26.5 -26.5z" />
    <glyph glyph-name="equal" unicode="=" horiz-adv-x="633" 
d="M76.25 443v30.25h480v-30.25h-480zM76.25 223v30.25h480v-30.25h-480z" />
    <glyph glyph-name="greater" unicode="&#x3e;" 
d="M187.86 532.52c-50.2402 0 -87.8604 37.6201 -87.8604 89.0801c0 51.4502 37.6201 89.0801 87.8604 89.0801c50.25 0 87.8701 -37.6299 87.8701 -89.0801c0 -51.46 -37.6201 -89.0801 -87.8701 -89.0801zM187.86 687.13c-37.3701 0 -65.29 -27.9102 -65.29 -65.5303
s28.1602 -65.54 65.29 -65.54c37.1396 0 65.2998 27.9199 65.2998 65.54s-27.9199 65.5303 -65.2998 65.5303zM102.91 461.16l0.000976562 22.8193l169.91 27.9102v-23.54l-129.82 -21.4102l125.93 -57.7197v-6.07031l-125.79 -57.7598l129.68 -21.6104v-23.54
l-169.91 28.4004v22.3301l121.69 54.9805zM250.731 201.21v76.46h22.0898v-99.5195h-169.91v96.8496h21.8496v-73.79h50.2402v67.4805h21.3604v-67.4805h54.3701zM187.861 143.689c49.2803 0 84.9609 -36.1699 84.9609 -86.1699v-57.5195h-169.91v57.5195
c0 50 35.6797 86.1699 84.9492 86.1699zM251.212 23.0596l0.000976562 33.7305c0 37.1396 -26.7002 63.3496 -63.3506 63.3496s-63.3506 -26.21 -63.3506 -63.3496v-33.7305h126.7z" />
    <glyph glyph-name="less" unicode="&#x3c;" 
d="M187.86 532.52c-50.2402 0 -87.8604 37.6201 -87.8604 89.0801c0 51.4502 37.6201 89.0801 87.8604 89.0801c50.25 0 87.8701 -37.6299 87.8701 -89.0801c0 -51.46 -37.6201 -89.0801 -87.8701 -89.0801zM187.86 687.13c-37.3701 0 -65.29 -27.9102 -65.29 -65.5303
s28.1602 -65.54 65.29 -65.54c37.1396 0 65.2998 27.9199 65.2998 65.54s-27.9199 65.5303 -65.2998 65.5303zM102.91 461.16l0.000976562 22.8193l169.91 27.9102v-23.54l-129.82 -21.4102l125.93 -57.7197v-6.07031l-125.79 -57.7598l129.68 -21.6104v-23.54
l-169.91 28.4004v22.3301l121.69 54.9805zM250.731 201.21v76.46h22.0898v-99.5195h-169.91v96.8496h21.8496v-73.79h50.2402v67.4805h21.3604v-67.4805h54.3701zM187.861 143.689c49.2803 0 84.9609 -36.1699 84.9609 -86.1699v-57.5195h-169.91v57.5195
c0 50 35.6797 86.1699 84.9492 86.1699zM251.212 23.0596l0.000976562 33.7305c0 37.1396 -26.7002 63.3496 -63.3506 63.3496s-63.3506 -26.21 -63.3506 -63.3496v-33.7305h126.7z" />
    <glyph glyph-name="plusminus" unicode="&#xb1;" 
d="M187.86 532.52c-50.2402 0 -87.8604 37.6201 -87.8604 89.0801c0 51.4502 37.6201 89.0801 87.8604 89.0801c50.25 0 87.8701 -37.6299 87.8701 -89.0801c0 -51.46 -37.6201 -89.0801 -87.8701 -89.0801zM187.86 687.13c-37.3701 0 -65.29 -27.9102 -65.29 -65.5303
s28.1602 -65.54 65.29 -65.54c37.1396 0 65.2998 27.9199 65.2998 65.54s-27.9199 65.5303 -65.2998 65.5303zM102.91 461.16l0.000976562 22.8193l169.91 27.9102v-23.54l-129.82 -21.4102l125.93 -57.7197v-6.07031l-125.79 -57.7598l129.68 -21.6104v-23.54
l-169.91 28.4004v22.3301l121.69 54.9805zM250.731 201.21v76.46h22.0898v-99.5195h-169.91v96.8496h21.8496v-73.79h50.2402v67.4805h21.3604v-67.4805h54.3701zM187.861 143.689c49.2803 0 84.9609 -36.1699 84.9609 -86.1699v-57.5195h-169.91v57.5195
c0 50 35.6797 86.1699 84.9492 86.1699zM251.212 23.0596l0.000976562 33.7305c0 37.1396 -26.7002 63.3496 -63.3506 63.3496s-63.3506 -26.21 -63.3506 -63.3496v-33.7305h126.7z" />
    <glyph glyph-name="asciitilde" unicode="~" 
d="M187.86 532.52c-50.2402 0 -87.8604 37.6201 -87.8604 89.0801c0 51.4502 37.6201 89.0801 87.8604 89.0801c50.25 0 87.8701 -37.6299 87.8701 -89.0801c0 -51.46 -37.6201 -89.0801 -87.8701 -89.0801zM187.86 687.13c-37.3701 0 -65.29 -27.9102 -65.29 -65.5303
s28.1602 -65.54 65.29 -65.54c37.1396 0 65.2998 27.9199 65.2998 65.54s-27.9199 65.5303 -65.2998 65.5303zM102.91 461.16l0.000976562 22.8193l169.91 27.9102v-23.54l-129.82 -21.4102l125.93 -57.7197v-6.07031l-125.79 -57.7598l129.68 -21.6104v-23.54
l-169.91 28.4004v22.3301l121.69 54.9805zM250.731 201.21v76.46h22.0898v-99.5195h-169.91v96.8496h21.8496v-73.79h50.2402v67.4805h21.3604v-67.4805h54.3701zM187.861 143.689c49.2803 0 84.9609 -36.1699 84.9609 -86.1699v-57.5195h-169.91v57.5195
c0 50 35.6797 86.1699 84.9492 86.1699zM251.212 23.0596l0.000976562 33.7305c0 37.1396 -26.7002 63.3496 -63.3506 63.3496s-63.3506 -26.21 -63.3506 -63.3496v-33.7305h126.7z" />
    <glyph glyph-name="logicalnot" unicode="&#xac;" 
d="M187.86 532.52c-50.2402 0 -87.8604 37.6201 -87.8604 89.0801c0 51.4502 37.6201 89.0801 87.8604 89.0801c50.25 0 87.8701 -37.6299 87.8701 -89.0801c0 -51.46 -37.6201 -89.0801 -87.8701 -89.0801zM187.86 687.13c-37.3701 0 -65.29 -27.9102 -65.29 -65.5303
s28.1602 -65.54 65.29 -65.54c37.1396 0 65.2998 27.9199 65.2998 65.54s-27.9199 65.5303 -65.2998 65.5303zM102.91 461.16l0.000976562 22.8193l169.91 27.9102v-23.54l-129.82 -21.4102l125.93 -57.7197v-6.07031l-125.79 -57.7598l129.68 -21.6104v-23.54
l-169.91 28.4004v22.3301l121.69 54.9805zM250.731 201.21v76.46h22.0898v-99.5195h-169.91v96.8496h21.8496v-73.79h50.2402v67.4805h21.3604v-67.4805h54.3701zM187.861 143.689c49.2803 0 84.9609 -36.1699 84.9609 -86.1699v-57.5195h-169.91v57.5195
c0 50 35.6797 86.1699 84.9492 86.1699zM251.212 23.0596l0.000976562 33.7305c0 37.1396 -26.7002 63.3496 -63.3506 63.3496s-63.3506 -26.21 -63.3506 -63.3496v-33.7305h126.7z" />
    <glyph glyph-name="percent" unicode="%" 
d="M187.86 532.52c-50.2402 0 -87.8604 37.6201 -87.8604 89.0801c0 51.4502 37.6201 89.0801 87.8604 89.0801c50.25 0 87.8701 -37.6299 87.8701 -89.0801c0 -51.46 -37.6201 -89.0801 -87.8701 -89.0801zM187.86 687.13c-37.3701 0 -65.29 -27.9102 -65.29 -65.5303
s28.1602 -65.54 65.29 -65.54c37.1396 0 65.2998 27.9199 65.2998 65.54s-27.9199 65.5303 -65.2998 65.5303zM102.91 461.16l0.000976562 22.8193l169.91 27.9102v-23.54l-129.82 -21.4102l125.93 -57.7197v-6.07031l-125.79 -57.7598l129.68 -21.6104v-23.54
l-169.91 28.4004v22.3301l121.69 54.9805zM250.731 201.21v76.46h22.0898v-99.5195h-169.91v96.8496h21.8496v-73.79h50.2402v67.4805h21.3604v-67.4805h54.3701zM187.861 143.689c49.2803 0 84.9609 -36.1699 84.9609 -86.1699v-57.5195h-169.91v57.5195
c0 50 35.6797 86.1699 84.9492 86.1699zM251.212 23.0596l0.000976562 33.7305c0 37.1396 -26.7002 63.3496 -63.3506 63.3496s-63.3506 -26.21 -63.3506 -63.3496v-33.7305h126.7z" />
    <glyph glyph-name="perthousand" unicode="&#x2030;" 
d="M187.86 532.52c-50.2402 0 -87.8604 37.6201 -87.8604 89.0801c0 51.4502 37.6201 89.0801 87.8604 89.0801c50.25 0 87.8701 -37.6299 87.8701 -89.0801c0 -51.46 -37.6201 -89.0801 -87.8701 -89.0801zM187.86 687.13c-37.3701 0 -65.29 -27.9102 -65.29 -65.5303
s28.1602 -65.54 65.29 -65.54c37.1396 0 65.2998 27.9199 65.2998 65.54s-27.9199 65.5303 -65.2998 65.5303zM102.91 461.16l0.000976562 22.8193l169.91 27.9102v-23.54l-129.82 -21.4102l125.93 -57.7197v-6.07031l-125.79 -57.7598l129.68 -21.6104v-23.54
l-169.91 28.4004v22.3301l121.69 54.9805zM250.731 201.21v76.46h22.0898v-99.5195h-169.91v96.8496h21.8496v-73.79h50.2402v67.4805h21.3604v-67.4805h54.3701zM187.861 143.689c49.2803 0 84.9609 -36.1699 84.9609 -86.1699v-57.5195h-169.91v57.5195
c0 50 35.6797 86.1699 84.9492 86.1699zM251.212 23.0596l0.000976562 33.7305c0 37.1396 -26.7002 63.3496 -63.3506 63.3496s-63.3506 -26.21 -63.3506 -63.3496v-33.7305h126.7z" />
    <glyph glyph-name="at" unicode="@" horiz-adv-x="1026" 
d="M508.25 702.75c275.5 0 461.25 -175.75 461.25 -436c0 -129 -60 -216.5 -147.75 -216.5c-63.4297 0 -112.6 45.8203 -122.09 112.051c-34.5098 -77.8896 -109.47 -128.3 -202.41 -128.3c-128.25 0 -224.75 98.5 -224.75 229.25s96.5 229.25 224.75 229.25
c90.75 0 164.36 -48.0703 199.91 -122.851l4.58984 103.6h21v-281.25c0 -67 41.75 -115.25 99.75 -115.25c71.5 0 119.75 76.5 119.75 190c0 244.5 -174.25 409.25 -433.5 409.25c-257.25 0 -429.75 -165.5 -429.75 -412.5c0 -246.5 167 -410.75 418.25 -410.75
c73 0 150.75 22.5 195.75 57v-30c-51 -33 -125.75 -54 -198 -54c-264.5 0 -443.5 176 -443.5 437.75c0 263 183.5 439.25 456.75 439.25zM498.75 62.5c113.75 0 196.75 84.75 196.75 201s-82.25 200.75 -196.75 200.75c-112.75 0 -196.75 -86.5 -196.75 -200.75
c0 -114.5 84 -201 196.75 -201z" />
    <glyph glyph-name="ampersand" unicode="&#x26;" horiz-adv-x="602" 
d="M597.25 0h-38.751c-30.3701 31.4297 -58.79 60.9697 -85.3701 88.79c-50.2402 -62.6396 -126.67 -99.04 -219.88 -99.04c-123.5 0 -204.75 71.25 -204.75 174.5c0 105.25 78.6904 163.37 161.86 215.54c-73.4404 92.5303 -96.8604 146.09 -96.8604 196.46
c0 80.75 65.25 134 159.5 134c90.75 0 155.25 -52.5 155.25 -127c0 -101.75 -89.25 -157 -175.25 -210l-0.269531 -0.169922c50.2803 -61.54 120.49 -138.91 215.91 -239.32c26.6904 43.6504 41.6104 98.2002 41.6104 160.74h28.5
c0 -71.3301 -17.54 -133.5 -49.1396 -182.77c32.9805 -34.54 68.79 -71.7002 107.64 -111.73zM142.999 576.25c0 -43.3301 25.0693 -96.0098 92.0596 -181.14l1.44043 0.889648c83 51 162.25 100.5 162.25 187.25c0 58.5 -52.5 100 -125.75 100
c-77.5 0 -130 -43.25 -130 -107zM255.248 19.5c83 0 152.02 33.3096 197.22 90.9492c-100.23 105.3 -172.74 184.71 -224.29 247.32c-79.1396 -49.8896 -148.93 -101.93 -148.93 -192.77c0 -86.75 70.5 -145.5 176 -145.5z" />
    <glyph glyph-name="paragraph" unicode="&#xb6;" horiz-adv-x="565" 
d="M530.5 700v-30.25h-95v-728h-29.75v728h-160.25v-728h-29.75v378.12c-109.49 3.62012 -183.25 79.1299 -183.25 189.88c0 112.75 77.5 190.25 193.75 190.25h304.25z" />
    <glyph glyph-name="section" unicode="&#xa7;" horiz-adv-x="490" 
d="M336.94 171.94c42.5596 -21.5801 72.8105 -53.1289 72.8105 -111.438c0 -83.5 -70.5 -127.75 -160.25 -127.75c-108 0 -174.75 58.25 -174.75 144h28.25c0 -72 57.5 -117 146.75 -117c79.75 0 131.5 39 131.5 100.5c0 78 -70.25 97.5 -149.75 119.25
c-84.25 22.5 -180.5 48.75 -180.5 159.5c0 63.0996 38.2598 109.47 103.689 133.189c-39.21 20.6602 -67.6904 52.0498 -67.6904 110.56c0 83.75 66.75 128 151.25 128c107.75 0 174.5 -57.5 174.5 -143.25h-28.25c0 72 -57.5 116.25 -146.5 116.25
c-73.5 0 -122.75 -39.25 -122.75 -100.75c0 -79.75 66.25 -98.5 141.25 -119.5c84.5 -22.5 180.5 -48 180.5 -160c0 -64.9805 -42.1797 -108.471 -100.06 -131.561zM79.751 340.501c0 -91.5 80.499 -113.5 161.499 -135.75
c14.2803 -3.7002 41.7803 -12.1406 61.3105 -18.7207c68.8203 18.4199 105.69 62 105.69 115.97c0 93.75 -81 115 -162.25 137.5c-13.3301 3.90039 -38.5 12.2402 -56.3301 18.3506c-72.1699 -18.5498 -109.92 -62.75 -109.92 -117.35z" />
    <glyph glyph-name="copyright" unicode="&#xa9;" horiz-adv-x="850" 
d="M424 -10.25c-216 0 -370 149 -370 359.25s154 359.25 370 359.25c217 0 372 -150 372 -359.25s-155 -359.25 -372 -359.25zM424 13.25c202.75 0 347.75 139 347.75 335.75s-145 335.75 -347.75 335.75s-346 -139 -346 -335.75s143.25 -335.75 346 -335.75zM425 168.5
c-102.75 0 -181.25 78.5 -181.25 181.5c0 105.25 78.25 182.5 181.25 182.5c77 0 138.5 -44.25 164 -111.5h-25c-25.25 55 -77.25 87.5 -139 87.5c-89.75 0 -156.75 -68.25 -156.75 -158.5c0 -89.25 67 -157.25 156.75 -157.25c61.75 0 112.75 31.75 138 87h25.5
c-26.25 -68.5 -88 -111.25 -163.5 -111.25z" />
    <glyph glyph-name="registered" unicode="&#xae;" horiz-adv-x="455" 
d="M227.75 710c96.5 0 174 -77.5 174 -174c0 -97.25 -77.5 -175 -174 -175c-97.25 0 -175 78.75 -175 175c0 96.5 77.75 174 175 174zM227.75 379.75c86.75 0 155.5 69.5 155.5 156.25c0 85.75 -69.75 155.25 -155.5 155.25c-87 0 -156.5 -68.75 -156.5 -155.25
c0 -86.75 69.75 -156.25 156.5 -156.25zM300.5 577.75c0 -27.7402 -18.7793 -47.7705 -45.0996 -52.6201l48.5996 -81.6299h-20l-47.9805 80.5h-45.2695v-80.5h-18.75v189h70.75c32.75 0 57.75 -23.5 57.75 -54.75zM190.751 614.5v-72.75h51.25c23.5 0 40 14.75 40 36.25
c0 20.75 -16.5 36.5 -40 36.5h-51.25z" />
    <glyph glyph-name="trademark" unicode="&#x2122;" horiz-adv-x="854" 
d="M337.5 676.25h-140.25v-345.25h-25v345.25h-142v23.75h307.25v-23.75zM784.75 331h-24.5l-56.9902 327.41l-145.51 -327.41h-9.5l-145.03 327.14l-57.4697 -327.14h-24.5l64.25 369h23.75l143.75 -325.84l143.75 325.84h24.75z" />
    <glyph glyph-name="degree" unicode="&#xb0;" 
d="M187.86 532.52c-50.2402 0 -87.8604 37.6201 -87.8604 89.0801c0 51.4502 37.6201 89.0801 87.8604 89.0801c50.25 0 87.8701 -37.6299 87.8701 -89.0801c0 -51.46 -37.6201 -89.0801 -87.8701 -89.0801zM187.86 687.13c-37.3701 0 -65.29 -27.9102 -65.29 -65.5303
s28.1602 -65.54 65.29 -65.54c37.1396 0 65.2998 27.9199 65.2998 65.54s-27.9199 65.5303 -65.2998 65.5303zM102.91 461.16l0.000976562 22.8193l169.91 27.9102v-23.54l-129.82 -21.4102l125.93 -57.7197v-6.07031l-125.79 -57.7598l129.68 -21.6104v-23.54
l-169.91 28.4004v22.3301l121.69 54.9805zM250.731 201.21v76.46h22.0898v-99.5195h-169.91v96.8496h21.8496v-73.79h50.2402v67.4805h21.3604v-67.4805h54.3701zM187.861 143.689c49.2803 0 84.9609 -36.1699 84.9609 -86.1699v-57.5195h-169.91v57.5195
c0 50 35.6797 86.1699 84.9492 86.1699zM251.212 23.0596l0.000976562 33.7305c0 37.1396 -26.7002 63.3496 -63.3506 63.3496s-63.3506 -26.21 -63.3506 -63.3496v-33.7305h126.7z" />
    <glyph glyph-name="bar" unicode="|" 
d="M187.86 532.52c-50.2402 0 -87.8604 37.6201 -87.8604 89.0801c0 51.4502 37.6201 89.0801 87.8604 89.0801c50.25 0 87.8701 -37.6299 87.8701 -89.0801c0 -51.46 -37.6201 -89.0801 -87.8701 -89.0801zM187.86 687.13c-37.3701 0 -65.29 -27.9102 -65.29 -65.5303
s28.1602 -65.54 65.29 -65.54c37.1396 0 65.2998 27.9199 65.2998 65.54s-27.9199 65.5303 -65.2998 65.5303zM102.91 461.16l0.000976562 22.8193l169.91 27.9102v-23.54l-129.82 -21.4102l125.93 -57.7197v-6.07031l-125.79 -57.7598l129.68 -21.6104v-23.54
l-169.91 28.4004v22.3301l121.69 54.9805zM250.731 201.21v76.46h22.0898v-99.5195h-169.91v96.8496h21.8496v-73.79h50.2402v67.4805h21.3604v-67.4805h54.3701zM187.861 143.689c49.2803 0 84.9609 -36.1699 84.9609 -86.1699v-57.5195h-169.91v57.5195
c0 50 35.6797 86.1699 84.9492 86.1699zM251.212 23.0596l0.000976562 33.7305c0 37.1396 -26.7002 63.3496 -63.3506 63.3496s-63.3506 -26.21 -63.3506 -63.3496v-33.7305h126.7z" />
    <glyph glyph-name="brokenbar" unicode="&#xa6;" 
d="M187.86 532.52c-50.2402 0 -87.8604 37.6201 -87.8604 89.0801c0 51.4502 37.6201 89.0801 87.8604 89.0801c50.25 0 87.8701 -37.6299 87.8701 -89.0801c0 -51.46 -37.6201 -89.0801 -87.8701 -89.0801zM187.86 687.13c-37.3701 0 -65.29 -27.9102 -65.29 -65.5303
s28.1602 -65.54 65.29 -65.54c37.1396 0 65.2998 27.9199 65.2998 65.54s-27.9199 65.5303 -65.2998 65.5303zM102.91 461.16l0.000976562 22.8193l169.91 27.9102v-23.54l-129.82 -21.4102l125.93 -57.7197v-6.07031l-125.79 -57.7598l129.68 -21.6104v-23.54
l-169.91 28.4004v22.3301l121.69 54.9805zM250.731 201.21v76.46h22.0898v-99.5195h-169.91v96.8496h21.8496v-73.79h50.2402v67.4805h21.3604v-67.4805h54.3701zM187.861 143.689c49.2803 0 84.9609 -36.1699 84.9609 -86.1699v-57.5195h-169.91v57.5195
c0 50 35.6797 86.1699 84.9492 86.1699zM251.212 23.0596l0.000976562 33.7305c0 37.1396 -26.7002 63.3496 -63.3506 63.3496s-63.3506 -26.21 -63.3506 -63.3496v-33.7305h126.7z" />
    <glyph glyph-name="dagger" unicode="&#x2020;" 
d="M187.86 532.52c-50.2402 0 -87.8604 37.6201 -87.8604 89.0801c0 51.4502 37.6201 89.0801 87.8604 89.0801c50.25 0 87.8701 -37.6299 87.8701 -89.0801c0 -51.46 -37.6201 -89.0801 -87.8701 -89.0801zM187.86 687.13c-37.3701 0 -65.29 -27.9102 -65.29 -65.5303
s28.1602 -65.54 65.29 -65.54c37.1396 0 65.2998 27.9199 65.2998 65.54s-27.9199 65.5303 -65.2998 65.5303zM102.91 461.16l0.000976562 22.8193l169.91 27.9102v-23.54l-129.82 -21.4102l125.93 -57.7197v-6.07031l-125.79 -57.7598l129.68 -21.6104v-23.54
l-169.91 28.4004v22.3301l121.69 54.9805zM250.731 201.21v76.46h22.0898v-99.5195h-169.91v96.8496h21.8496v-73.79h50.2402v67.4805h21.3604v-67.4805h54.3701zM187.861 143.689c49.2803 0 84.9609 -36.1699 84.9609 -86.1699v-57.5195h-169.91v57.5195
c0 50 35.6797 86.1699 84.9492 86.1699zM251.212 23.0596l0.000976562 33.7305c0 37.1396 -26.7002 63.3496 -63.3506 63.3496s-63.3506 -26.21 -63.3506 -63.3496v-33.7305h126.7z" />
    <glyph glyph-name="daggerdbl" unicode="&#x2021;" 
d="M187.86 532.52c-50.2402 0 -87.8604 37.6201 -87.8604 89.0801c0 51.4502 37.6201 89.0801 87.8604 89.0801c50.25 0 87.8701 -37.6299 87.8701 -89.0801c0 -51.46 -37.6201 -89.0801 -87.8701 -89.0801zM187.86 687.13c-37.3701 0 -65.29 -27.9102 -65.29 -65.5303
s28.1602 -65.54 65.29 -65.54c37.1396 0 65.2998 27.9199 65.2998 65.54s-27.9199 65.5303 -65.2998 65.5303zM102.91 461.16l0.000976562 22.8193l169.91 27.9102v-23.54l-129.82 -21.4102l125.93 -57.7197v-6.07031l-125.79 -57.7598l129.68 -21.6104v-23.54
l-169.91 28.4004v22.3301l121.69 54.9805zM250.731 201.21v76.46h22.0898v-99.5195h-169.91v96.8496h21.8496v-73.79h50.2402v67.4805h21.3604v-67.4805h54.3701zM187.861 143.689c49.2803 0 84.9609 -36.1699 84.9609 -86.1699v-57.5195h-169.91v57.5195
c0 50 35.6797 86.1699 84.9492 86.1699zM251.212 23.0596l0.000976562 33.7305c0 37.1396 -26.7002 63.3496 -63.3506 63.3496s-63.3506 -26.21 -63.3506 -63.3496v-33.7305h126.7z" />
    <glyph glyph-name="asciicircum" unicode="^" 
d="M187.86 532.52c-50.2402 0 -87.8604 37.6201 -87.8604 89.0801c0 51.4502 37.6201 89.0801 87.8604 89.0801c50.25 0 87.8701 -37.6299 87.8701 -89.0801c0 -51.46 -37.6201 -89.0801 -87.8701 -89.0801zM187.86 687.13c-37.3701 0 -65.29 -27.9102 -65.29 -65.5303
s28.1602 -65.54 65.29 -65.54c37.1396 0 65.2998 27.9199 65.2998 65.54s-27.9199 65.5303 -65.2998 65.5303zM102.91 461.16l0.000976562 22.8193l169.91 27.9102v-23.54l-129.82 -21.4102l125.93 -57.7197v-6.07031l-125.79 -57.7598l129.68 -21.6104v-23.54
l-169.91 28.4004v22.3301l121.69 54.9805zM250.731 201.21v76.46h22.0898v-99.5195h-169.91v96.8496h21.8496v-73.79h50.2402v67.4805h21.3604v-67.4805h54.3701zM187.861 143.689c49.2803 0 84.9609 -36.1699 84.9609 -86.1699v-57.5195h-169.91v57.5195
c0 50 35.6797 86.1699 84.9492 86.1699zM251.212 23.0596l0.000976562 33.7305c0 37.1396 -26.7002 63.3496 -63.3506 63.3496s-63.3506 -26.21 -63.3506 -63.3496v-33.7305h126.7z" />
    <glyph glyph-name="acute" unicode="&#xb4;" horiz-adv-x="338" 
d="M409.76 737.71c26.1904 0 45.7803 -19.1895 45.7803 -44.8398c0 -25.6396 -19.5898 -44.8398 -45.7803 -44.8398c-26.2998 0 -46.0195 19.3203 -46.0195 44.8398c0 25.5303 19.7197 44.8398 46.0195 44.8398zM123.42 735.741c25.2803 0 43.5303 -17.9902 43.5303 -42.75
c0 -24.8701 -18.3701 -42.9805 -43.5303 -42.9805h-33.2998v85.7305h33.2998zM201.35 684.001v-15.2412h33.2402v-18.75h-53.5703v85.7305h52.25v-18.6299h-31.9199v-14.8896h28.7305v-18.2197h-28.7305zM322.359 735.74h20.4502l13.0898 -85.7305h-20.7002
l-7.83984 53.4902l-24.6201 -53.7305h-5.0498l-24.6104 53.7305l-7.84961 -53.4902h-20.7002l13.21 85.7305h20.4502l22.0303 -50.3096zM409.76 667.12c14.3496 0 25.1494 11.0303 25.1494 25.75s-10.7998 25.7598 -25.1494 25.7598s-25.3799 -11.1602 -25.3799 -25.7598
s11.0303 -25.75 25.3799 -25.75zM122.88 668.84c13.7598 0 23.2402 10.0498 23.2402 24.1494c0 14.21 -9.48047 23.9102 -23.2402 23.9102h-12.4102v-48.0596h12.4102z" />
    <glyph glyph-name="cedilla" unicode="&#xb8;" horiz-adv-x="388" 
d="M174.26 -58.6797c59.6504 -2.80957 101.49 -37.9502 101.49 -87.5703c0 -51 -44 -87.75 -106 -87.75h-64.5v22.25h61.75c48.75 0 82.75 27.25 82.75 66.25c0 38.25 -34.75 66 -84.25 66h-14.25l-4 4.75l22.75 83.25l24.25 0.75z" />
    <glyph glyph-name="circumflex" unicode="&#x2c6;" horiz-adv-x="600" 
d="M410.51 737.71c26.1904 0 45.7803 -19.1895 45.7803 -44.8398c0 -25.6396 -19.5898 -44.8398 -45.7803 -44.8398c-26.2998 0 -46.0195 19.3203 -46.0195 44.8398c0 25.5303 19.7197 44.8398 46.0195 44.8398zM124.17 735.741c25.2803 0 43.5303 -17.9902 43.5303 -42.75
c0 -24.8701 -18.3701 -42.9805 -43.5303 -42.9805h-33.2998v85.7305h33.2998zM202.1 684.001v-15.2412h33.2402v-18.75h-53.5703v85.7305h52.25v-18.6299h-31.9199v-14.8896h28.7305v-18.2197h-28.7305zM323.109 735.74h20.4502l13.0898 -85.7305h-20.7002l-7.83984 53.4902
l-24.6201 -53.7305h-5.0498l-24.6104 53.7305l-7.84961 -53.4902h-20.7002l13.21 85.7305h20.4502l22.0303 -50.3096zM410.51 667.12c14.3496 0 25.1494 11.0303 25.1494 25.75s-10.7998 25.7598 -25.1494 25.7598s-25.3799 -11.1602 -25.3799 -25.7598
s11.0303 -25.75 25.3799 -25.75zM123.63 668.84c13.7598 0 23.2402 10.0498 23.2402 24.1494c0 14.21 -9.48047 23.9102 -23.2402 23.9102h-12.4102v-48.0596h12.4102z" />
    <glyph glyph-name="dieresis" unicode="&#xa8;" horiz-adv-x="600" 
d="M99.75 660v55.75h48.5v-55.75h-48.5zM267 660v55.75h48.5v-55.75h-48.5z" />
    <glyph glyph-name="grave" unicode="`" horiz-adv-x="600" 
d="M419.64 737.71c26.1904 0 45.7803 -19.1895 45.7803 -44.8398c0 -25.6396 -19.5898 -44.8398 -45.7803 -44.8398c-26.2998 0 -46.0195 19.3203 -46.0195 44.8398c0 25.5303 19.7197 44.8398 46.0195 44.8398zM133.3 735.741c25.2803 0 43.5303 -17.9902 43.5303 -42.75
c0 -24.8701 -18.3701 -42.9805 -43.5303 -42.9805h-33.2998v85.7305h33.2998zM211.229 684.001v-15.2412h33.2402v-18.75h-53.5703v85.7305h52.25v-18.6299h-31.9199v-14.8896h28.7305v-18.2197h-28.7305zM332.239 735.74h20.4502l13.0898 -85.7305h-20.7002
l-7.83984 53.4902l-24.6201 -53.7305h-5.0498l-24.6104 53.7305l-7.84961 -53.4902h-20.7002l13.21 85.7305h20.4502l22.0303 -50.3096zM419.64 667.12c14.3496 0 25.1494 11.0303 25.1494 25.75s-10.7998 25.7598 -25.1494 25.7598s-25.3799 -11.1602 -25.3799 -25.7598
s11.0303 -25.75 25.3799 -25.75zM132.76 668.84c13.7598 0 23.2402 10.0498 23.2402 24.1494c0 14.21 -9.48047 23.9102 -23.2402 23.9102h-12.4102v-48.0596h12.4102z" />
    <glyph glyph-name="macron" unicode="&#xaf;" horiz-adv-x="565" 
d="M419.64 737.71c26.1904 0 45.7803 -19.1895 45.7803 -44.8398c0 -25.6396 -19.5898 -44.8398 -45.7803 -44.8398c-26.2998 0 -46.0195 19.3203 -46.0195 44.8398c0 25.5303 19.7197 44.8398 46.0195 44.8398zM133.3 735.741c25.2803 0 43.5303 -17.9902 43.5303 -42.75
c0 -24.8701 -18.3701 -42.9805 -43.5303 -42.9805h-33.2998v85.7305h33.2998zM211.229 684.001v-15.2412h33.2402v-18.75h-53.5703v85.7305h52.25v-18.6299h-31.9199v-14.8896h28.7305v-18.2197h-28.7305zM332.239 735.74h20.4502l13.0898 -85.7305h-20.7002
l-7.83984 53.4902l-24.6201 -53.7305h-5.0498l-24.6104 53.7305l-7.84961 -53.4902h-20.7002l13.21 85.7305h20.4502l22.0303 -50.3096zM419.64 667.12c14.3496 0 25.1494 11.0303 25.1494 25.75s-10.7998 25.7598 -25.1494 25.7598s-25.3799 -11.1602 -25.3799 -25.7598
s11.0303 -25.75 25.3799 -25.75zM132.76 668.84c13.7598 0 23.2402 10.0498 23.2402 24.1494c0 14.21 -9.48047 23.9102 -23.2402 23.9102h-12.4102v-48.0596h12.4102z" />
    <glyph glyph-name="tilde" unicode="&#x2dc;" horiz-adv-x="600" 
d="M419.64 737.71c26.1904 0 45.7803 -19.1895 45.7803 -44.8398c0 -25.6396 -19.5898 -44.8398 -45.7803 -44.8398c-26.2998 0 -46.0195 19.3203 -46.0195 44.8398c0 25.5303 19.7197 44.8398 46.0195 44.8398zM133.3 735.741c25.2803 0 43.5303 -17.9902 43.5303 -42.75
c0 -24.8701 -18.3701 -42.9805 -43.5303 -42.9805h-33.2998v85.7305h33.2998zM211.229 684.001v-15.2412h33.2402v-18.75h-53.5703v85.7305h52.25v-18.6299h-31.9199v-14.8896h28.7305v-18.2197h-28.7305zM332.239 735.74h20.4502l13.0898 -85.7305h-20.7002
l-7.83984 53.4902l-24.6201 -53.7305h-5.0498l-24.6104 53.7305l-7.84961 -53.4902h-20.7002l13.21 85.7305h20.4502l22.0303 -50.3096zM419.64 667.12c14.3496 0 25.1494 11.0303 25.1494 25.75s-10.7998 25.7598 -25.1494 25.7598s-25.3799 -11.1602 -25.3799 -25.7598
s11.0303 -25.75 25.3799 -25.75zM132.76 668.84c13.7598 0 23.2402 10.0498 23.2402 24.1494c0 14.21 -9.48047 23.9102 -23.2402 23.9102h-12.4102v-48.0596h12.4102z" />
  </font>
</defs>
</svg>
